.
Авторизация | Регистрация
Хочешь лучшие торренты? Добавь свой email!
Добавить
» » 28 дней спустя / 28 Days Later... (2002) BDRip-AVC | iPhone | D скачать торрент бесплатно




    28 дней спустя / 28 Days Later... (2002) BDRip-AVC | iPhone | D скачать торрент бесплатно

    Опубликовал: Админ | Дата: 27-02-2015, 11:10 | Просмотров: 349



    28 дней спустя / 28 Days Later... (2002) BDRip-AVC | iPhone | D

    Русское название: 28 дней спустя
    Русское название в мировом прокате: 28 Days Later...
    Создали в: 2002
    Категория жанра: ужасы, фантастика, триллер
    Главный режиссер: Дэнни Бойл
    Актеры: Киллиан Мёрфи, Наоми Харрис, Меган Бёрнс, Брендан Глисон, Кристофер Экклстон, Ной Хантли, Люк Мэбли, Стюарт МакКуорри, Риччи Харнетт, Джуниор Ланиян

    Сюжет фильма:
    Группа зеленых экстремистов вторгается в центр исследования приматов и выпускает из секретной научной лаборатории обезьяну, зараженную вирусом неудержимой агрессии. Смертельный вирус, передающийся через кровь за считанные секунды, приводит к мгновенному заражению и, соприкасаясь с любым живым существом, превращает его в кровожадного монстра.Через 4 недели вся Англия охвачена страшной эпидемией: многие люди эвакуируются, другие ищут безопасные места, в надежде спастись. Те, кому посчастливилось не заразиться, вместе с группой военных прячутся в заброшенном доме. Вместе им предстоит разобраться в ситуации и попытаться ее исправить...


    Снималось в: Великобритания
    Киностудия: DNA Films, British Film Council
    Время просмотра: 01:57:34
    Перевод текста: Русский дублированный

    Файл
    Кодек для видео: H.264
    Качество фильма: BDRip-AVC 480p iPhone
    Информация о видео: 640x460@851x460 (1.85:1) at 23.976 fps, AVC at 1990 kbps
    Информация о звуке:
    1: 48 kHz, AAC 2.0, 144 kbps - Русский дублированный (ОРТ)
    2: 48 kHz, AAC 2.0, 140 kbps - Английский
    Субтитры: Английские

    Media Info

    General
    Complete name : C:CREATE480out28 Days Later.2002 (SD).m4v
    Format : MPEG-4
    Codec ID : M4V
    File size : 1.88 GiB
    Duration : 1h 57mn
    Overall bit rate mode : Variable
    Overall bit rate : 2 285 Kbps
    Movie name : 28 дней спустя
    Performer : Дэнни Бойл
    Genre : Horror
    Recorded date : UTC 2002-01-01 08:00:00
    Encoded date : UTC 2014-02-15 17:51:45
    Tagged date : UTC 2014-02-15 20:49:16
    Copyright : © 2002 Twentieth Century Fox Film Corporation. All rights reserved.
    Cover : Yes
    Comment : Твои дни сочтены!
    sonm : 28 Days Later...
    desc : Группа зеленых экстремистов вторгается в центр исследования приматов и выпускает из секретной научной лаборатории обезьяну, зараженную вирусом неудержимой агрессии. Смертельный вирус, передающийся через кровь за считанные секунды.
    ldes : Группа зеленых экстремистов вторгается в центр исследования приматов и выпускает из секретной научной лаборатории обезьяну, зараженную вирусом неудержимой агрессии. Смертельный вирус, передающийся через кровь за считанные секунды, приводит к мгновенному заражению, и, соприкасаясь с любым живым существом, превращает его в кровожадного монстра. Через 4 недели вся Англия охвачена страшной эпидемией: многие люди эвакуируются, другие ищут безопасные места, в надежде спастись. Те, кому посчастливилось не заразиться, вместе с группой военных прячутся в заброшенном доме. Вместе им предстоит разобраться в ситуации и попытаться ее исправить…
    stik : 9
    rtng : 0
    cnID : 569220589
    xid : Apple:vendor_id:2002-577
    iTunEXTC : mpaa|R|400|

    Video #1
    ID : 1
    Format : AVC
    Format/Info : Advanced Video Codec
    Format profile : Baseline@L3.0
    Format settings, CABAC : No
    Format settings, ReFrames : 2 frames
    Codec ID : avc1
    Codec ID/Info : Advanced Video Coding
    Duration : 1h 57mn
    Bit rate : 1 996 Kbps
    Maximum bit rate : 7 167 Kbps
    Width : 640 pixels
    Height : 460 pixels
    Display aspect ratio : 1.85:1
    Frame rate mode : Constant
    Frame rate : 23.976 fps
    Color space : YUV
    Chroma subsampling : 4:2:0
    Bit depth : 8 bits
    Scan type : Progressive
    Bits/(Pixel*Frame) : 0.283
    Stream size : 1.64 GiB (87%)
    Title : 28 Days Later _2002_
    Writing library : x264 core 140 r2377 40 929f149 tMod 8-bit@4:2:0 X86_64
    Encoding settings : cabac=0 / ref=2 / deblock=1:-2:-2 / analyse=0x1:0x131 / me=umh / subme=7 / psy=1 / fade_compensate=1.00 / psy_rd=1.00:0.10 / mixed_ref=1 / me_range=48 / chroma_me=1 / trellis=2 / 8x8dct=0 / cqm=0 / deadzone=21,11 / fast_pskip=0 / chroma_qp_offset=-3 / threads=12 / lookahead_threads=2 / sliced_threads=0 / nr=0 / decimate=0 / interlaced=0 / bluray_compat=0 / constrained_intra=0 / fgo=5 / bframes=0 / weightp=0 / keyint=250 / keyint_min=23 / scenecut=40 / intra_refresh=0 / rc_lookahead=120 / rc=crf / mbtree=1 / crf=20.5000 / qcomp=0.60 / qpmin=0:0:0 / qpmax=69:69:69 / qpstep=4 / vbv_maxrate=5000 / vbv_bufsize=5000 / crf_max=0.0 / nal_hrd=none / filler=0 / ip_ratio=1.30 / aq=4:0.90 / aq-sensitivity=10.00 / aq-factor=1.00:1.00:1.00 / aq2=0 / aq3=0
    Language : English
    Encoded date : UTC 2014-02-15 17:51:45
    Tagged date : UTC 2014-02-15 17:52:21
    Matrix coefficients : BT.709

    Video #2
    ID : 6
    Format : JPEG
    Codec ID : jpeg
    Duration : 1h 57mn
    Bit rate mode : Variable
    Bit rate : 1 566 bps
    Width : 640 pixels
    Height : 345 pixels
    Display aspect ratio : 1.85:1
    Frame rate mode : Variable
    Frame rate : 0.005 fps
    Minimum frame rate : 0.002 fps
    Maximum frame rate : 0.012 fps
    Color space : YUV
    Chroma subsampling : 4:2:0
    Bit depth : 8 bits
    Compression mode : Lossy
    Bits/(Pixel*Frame) : 1.418
    Stream size : 1.19 MiB (0%)
    Language : English
    Encoded date : UTC 2014-02-15 20:46:24
    Tagged date : UTC 2014-02-15 20:46:24

    Audio #1
    ID : 2
    Format : AAC
    Format/Info : Advanced Audio Codec
    Format profile : LC
    Codec ID : 40
    Duration : 1h 57mn
    Bit rate mode : Variable
    Bit rate : 144 Kbps
    Maximum bit rate : 224 Kbps
    Channel(s) : 2 channels
    Channel positions : Front: L R
    Sampling rate : 48.0 KHz
    Compression mode : Lossy
    Stream size : 119 MiB (6%)
    Title : DUB
    Language : Russian
    Encoded date : UTC 2014-02-15 17:41:02
    Tagged date : UTC 2014-02-15 17:52:21

    Audio #2
    ID : 3
    Format : AAC
    Format/Info : Advanced Audio Codec
    Format profile : LC
    Codec ID : 40
    Duration : 1h 57mn
    Bit rate mode : Variable
    Bit rate : 139 Kbps
    Maximum bit rate : 224 Kbps
    Channel(s) : 2 channels
    Channel positions : Front: L R
    Sampling rate : 48.0 KHz
    Compression mode : Lossy
    Stream size : 117 MiB (6%)
    Title : Original
    Language : English
    Encoded date : UTC 2014-02-15 17:48:18
    Tagged date : UTC 2014-02-15 17:52:21

    Text
    ID : 4
    Format : Timed Text
    Muxing mode : sbtl
    Codec ID : tx3g
    Duration : 1h 53mn
    Bit rate mode : Variable
    Bit rate : 35 bps
    Stream size : 29.0 KiB (0%)
    Title : Subtitle English SDH
    Language : English
    Encoded date : UTC 2014-02-15 17:52:21
    Tagged date : UTC 2014-02-15 17:52:21

    Menu
    ID : 5
    Codec ID : text
    Duration : 1h 57mn
    Language : English
    Encoded date : UTC 2014-02-15 17:53:54
    Tagged date : UTC 2014-02-15 17:53:54
    Bit rate mode : CBR
    iTunes Meta Tags

    Sort Name: 28 Days Later...
    XID: Apple:vendor_id:2002-577
    contentID: 569220589
    Copyright: © 2002 Twentieth Century Fox Film Corporation. All rights reserved.
    Screenwriters: Алекс Гарленд
    Producers: Эндрю МакДональд, Роберт Хау
    Director: Дэнни Бойл
    Cast: Cillian Murphy (Jim), Naomie Harris (Selena), Brendan Gleeson (Frank), Christopher Eccleston (Major Henry West), Noah Huntley (Mark), Christopher Dunne (Jim;s father), Emma Hitching (Jim;s mother), Alexander Delamere (Mr. Bridges), Kim McGarrity (Mr. Bridges’ Daughter), Megan Burns (Hannah), Alex Palmer (Aktivist), Bindu De Stoppani (Aktivist), Jukka Hiltunen (Aktivist), David Schneider (Scientist), Toby Sedgwick (Infected Priest), Stuart McQuarrie (Seargent Farrell)
    Studio: Twentieth Century Fox
    Rating: 5
    Long Deion: Группа зеленых экстремистов вторгается в центр исследования приматов и выпускает из секретной научной лаборатории обезьяну, зараженную вирусом неудержимой агрессии. Смертельный вирус, передающийся через кровь за считанные секунды, приводит к мгновенному заражению, и, соприкасаясь с любым живым существом, превращает его в кровожадного монстра. Через 4 недели вся Англия охвачена страшной эпидемией: многие люди эвакуируются, другие ищут безопасные места, в надежде спастись. Те, кому посчастливилось не заразиться, вместе с группой военных прячутся в заброшенном доме. Вместе им предстоит разобраться в ситуации и попытаться ее исправить…
    Deion: Группа зеленых экстремистов вторгается в центр исследования приматов и выпускает из секретной научной лаборатории обезьяну, зараженную вирусом неудержимой агрессии. Смертельный вирус, передающийся через кровь за считанные секунды.
    Release Date: 2002-01-01T08:00:00Z
    Genre: Horror
    Comments: Твои дни сочтены!
    Artist: Дэнни Бойл
    Name: 28 дней спустя
    x264 Log

    x264 info: frame I:5890 Avg QP:20.15 size: 18941
    x264 info: frame P:163239 Avg QP:21.87 size: 10100
    x264 info: mb I I16..4: 44.1% 0.0% 55.9%
    x264 info: mb P I16..4: 1.0% 0.0% 1.0% P16..4: 48.3% 17.3% 12.1% 1.0% 0.6% skip:18.7%
    x264 info: coded y,uvDC,uvAC intra: 56.3% 63.5% 26.8% inter: 39.2% 41.1% 9.1%
    x264 info: i16 v,h,dc,p: 58% 12% 9% 21%
    x264 info: i4 v,h,dc,ddl,ddr,vr,hd,vl,hu: 31% 12% 19% 7% 7% 9% 5% 7% 4%
    x264 info: i8c dc,h,v,p: 62% 12% 21% 5%
    x264 info: ref P L0: 74.7% 25.3%
    x264 info: kb/s:1996.38
    Скриншоты для ознакомления




    Залил: gekka
    Размер скачиваемого торрента: 1.88 GB (2014634265 Bytes)

    28 дней спустя / 28 Days Later... (2002) BDRip-AVC | iPhone | D торрент скачать бесплатно
    загрузка...
    Рейтинг →
     (голосов: 1, оценка 5/5, голосовать можно 1 раз )

    Другие торренты по теме:

  • 28 дней спустя 28 недель спустя / 28 Days Later 28 Weeks Later (2002-2007) BDRip-AVC
  • 28 Дней Спустя / 28 Days Later (2002) BDRemux 1080p скачать через торрент бесплатно
  • 28 дней / 28 Days (2000) DVDRip скачать через торрент бесплатно
  • John Murphy - 28 дней спустя / 28 Days Later (2003) FLAC скачать через торрент бесплатно
  • 28 дней спустя / 28 Days Later (2002) BDRip-AVC от Rulya74


    • Комментарии (0):

      Информация

      Информация

        Посетители, находящиеся в группе Гости, не могут оставлять комментарии в данной новости.

        ↓ Меню



        ↓ Опрос

        А Вы добавили сайт в закладки?
        Да
        Не


        Top 10 за месяц (Фильмы)