.
Авторизация | Регистрация
Хочешь лучшие торренты? Добавь свой email!
Добавить
» » Секс после детей / Sex After Kids (2013) DVB от MediaClub | P2 скачать через торрент бесплатно




    Секс после детей / Sex After Kids (2013) DVB от MediaClub | P2 скачать через торрент бесплатно

    Опубликовал: Админ | Дата: 27-02-2015, 11:10 | Просмотров: 343



    Детально о кино
    Русское название: Секс после детей
    Русское название в мировом прокате: Sex After Kids
    Создали в: 2013
    Категория жанра: Комедия
    Главный режиссер: Джереми Лалонд
    Актеры: Пол Амос, Шеннон Бекнер, Кэти Боланд, Кристин Бут, Джей Бразо, Аманда Бругел, Эннис Эсмер, Кейт Хьюлетт, Кристен Холден-Рид, Кристин Хорн

    Сюжет фильма:
    Истории о том, как меняются отношения в молодых парах с появлением ребёнка. Новорождённый требует к себе внимания и заботы родителей, которые больше не могут как и раньше принадлежать только друг другу. Матери из успешных и красивых женщин превращаются в замученных домохозяек, погружаются в хлопоты, домашние дела, всю их жизнь подчиняет себе любимый малыш, а муж и секс отходят на второй план…



    Снималось в: Канада
    Киностудия: Believerville Productions, Cryingman Productions
    Время просмотра: 01:41:57
    Перевод текста: Профессиональный двухголосый (НТВ )

    Файл
    Качество фильма: DVB
    Информация о видео: MPEG-2, 1919 Кбит/с, 720x576@1024x576
    Информация о звуке: Русский (АС3, 2 ch, 192 Кбит/с) / (MP2, 2 ch, 192 Кбит/с)

    Семпл

    Скриншоты для ознакомления

    MI
    Общее
    Полное имя : Seks.posle.detej.2013.DVB.MediaClub.ts
    Формат : MPEG-TS
    Профиль формата : No PAT/PMT
    Размер файла : 1,73 Гбайт
    Продолжительность : 1 ч. 41 м.
    Режим общего битрейта : Переменный
    Общий поток : 2427 Кбит/сек

    Видео
    Идентификатор : 322 (0x142)
    Формат : MPEG Video
    Версия формата : Version 2
    Профиль формата : Main@Main
    Параметр BVOP формата : Да
    Параметр матрицы формата : Выборочная
    Параметр GOP формата : Variable
    Продолжительность : 1 ч. 41 м.
    Вид битрейта : Переменный
    Битрейт : 1919 Кбит/сек
    Максимальный битрейт : 15,0 Мбит/сек
    Ширина : 720 пикселей
    Высота : 576 пикселей
    Соотношение сторон : 16:9
    Частота кадров : 25,000 кадров/сек
    Стандарт вещания : PAL
    Цветовое пространство : YUV
    Субдискретизация насыщенности : 4:2:0
    Битовая глубина : 8 бит
    Тип развёртки : Чересстрочная
    Порядок развёртки : Верхнее поле первое
    Метод сжатия : С потерями
    Бит/(Пиксели*Кадры) : 0.185
    Размер потока : 1,37 Гбайт (79%)

    Аудио #1
    Идентификатор : 405 (0x195)
    Формат : MPEG Audio
    Версия формата : Version 1
    Профиль формата : Layer 2
    Продолжительность : 1 ч. 41 м.
    Вид битрейта : Постоянный
    Битрейт : 192 Кбит/сек
    Каналы : 2 канала
    Частота : 48,0 КГц
    Метод сжатия : С потерями
    Задержка видео : -731 мс.
    Размер потока : 140 Мбайт (8%)

    Аудио #2
    Идентификатор : 435 (0x1B3)
    Формат : AC-3
    Формат/Информация : Audio Coding 3
    Расширение режима : CM (complete main)
    Параметр Endianness формата : Big
    Продолжительность : 1 ч. 41 м.
    Вид битрейта : Постоянный
    Битрейт : 192 Кбит/сек
    Каналы : 2 канала
    Расположение каналов : Front: L R
    Частота : 48,0 КГц
    Битовая глубина : 16 бит
    Метод сжатия : С потерями
    Задержка видео : -643 мс.
    Размер потока : 140 Мбайт (8%)


    Релиз подготовил:
    Залил: poja
    Размер скачиваемого торрента: 1.73 GB (1854207528 Bytes)

    Секс после детей / Sex After Kids (2013) DVB от MediaClub | P2 скачать через торрент бесплатно
    загрузка...
    Рейтинг →
     (голосов: 1, оценка 4/5, голосовать можно 1 раз )

    Другие торренты по теме:

  • Секс после детей / Sex After Kids (2013) SATRip от MediaClub | P2


    • Комментарии (0):

      Информация

      Информация

        Посетители, находящиеся в группе Гости, не могут оставлять комментарии в данной новости.

        ↓ Меню



        ↓ Опрос

        А Вы добавили сайт в закладки?
        Да
        Не


        Top 10 за месяц (Фильмы)