.
Авторизация | Регистрация
Хочешь лучшие торренты? Добавь свой email!
Добавить
» » Ловушка для родителей 2 / The Parent Trap II (1986) DVDRip | P скачать торрент бесплатно




    Ловушка для родителей 2 / The Parent Trap II (1986) DVDRip | P скачать торрент бесплатно

    Опубликовал: Админ | Дата: 27-02-2015, 11:10 | Просмотров: 541

    Ловушка для родителей 2 / The Parent Trap II

    Русское название: Ловушка для родителей 2
    Русское название в мировом прокате: The Parent Trap II
    Создали в: 1986
    Категория жанра: Комедия, семейный


    Главный режиссер: Рональд Ф. Максвелл

    Актеры: Хейли Миллз, Том Скерритт, Кэрри Кеи Хейм, Бриджит Андерсен, Алекс Харви, Глория Кромвелл, Джудит Таннен, Дженис Тэш, Дачесс Томаселло, Дэниэл Брун


    Сюжет фильма:
    Мэри и Ники — лучшие друзья, и они хотят всегда быть вместе. А для этого им необходимо поженить своих одиноких родителей. Однако, у мамы Ники, Шэрон, совсем другие планы — она собирается переехать в Нью-Йорк. Но планы могут измениться, ведь романтическая ловушка для одинокой мамы и холостого папы уже расставлена предприимчивыми детьми…





    Снималось в: США, Walt Disney Television
    Время просмотра: 01:21:20
    Перевод текста: Профессиональный многоголосый


    Качество фильма: DVDRip
    Информация о видео: XviD, 1640 Кбит/с, 640x480, 24 кадр/с
    Информация о звуке: Русский, английский (АС3, 2 ch, 192 Кбит/с)


    Скриншоты для ознакомления



    MediaInfo
    Общее
    Полное имя : E:Parent.Trap.2.1986.P.VHSRip.avi
    Формат : AVI
    Формат/Информация : Audio Video Interleave
    Размер файла : 1,16 Гбайт
    Продолжительность : 1 ч. 21 м.
    Общий поток : 2038 Кбит/сек
    Программа кодирования : VirtualDubModRus 1.5.10.2 (build 2542/release)
    Библиотека кодирования : VirtualDubMod build 2542/release

    Видео
    Идентификатор : 0
    Формат : MPEG-4 Visual
    Профиль формата : Advanced Simple@L5
    Параметр BVOP формата : 2
    Параметр QPel формата : Нет
    Параметр GMC формата : Без точки перехода
    Параметр матрицы формата : Выборочная
    Идентификатор кодека : XVID
    Идентификатор кодека/Подсказка : XviD
    Продолжительность : 1 ч. 21 м.
    Битрейт : 1640 Кбит/сек
    Ширина : 640 пикселей
    Высота : 480 пикселей
    Соотношение сторон : 4:3
    Частота кадров : 24,000 кадра/сек
    Цветовое пространство : YUV
    Субдискретизация насыщенности : 4:2:0
    Битовая глубина : 8 бит
    Тип развёртки : Прогрессивная
    Метод сжатия : С потерями
    Бит/(Пиксели*Кадры) : 0.222
    Размер потока : 954 Мбайт (80%)
    Библиотека кодирования : XviD 73

    Аудио #1
    Идентификатор : 1
    Формат : AC-3
    Формат/Информация : Audio Coding 3
    Расширение режима : CM (complete main)
    Параметр Endianness формата : Big
    Идентификатор кодека : 2000
    Продолжительность : 1 ч. 21 м.
    Вид битрейта : Постоянный
    Битрейт : 192 Кбит/сек
    Каналы : 2 канала
    Расположение каналов : Front: L R
    Частота : 48,0 КГц
    Битовая глубина : 16 бит
    Метод сжатия : С потерями
    Размер потока : 112 Мбайт (9%)
    Выравнивание : Разделение по промежуткам
    Продолжительность промежутка : 42 мс. (1,00 видеокадр)
    Время предзагрузки промежутка : 500 мс.

    Аудио #2
    Идентификатор : 2
    Формат : AC-3
    Формат/Информация : Audio Coding 3
    Расширение режима : CM (complete main)
    Параметр Endianness формата : Big
    Идентификатор кодека : 2000
    Продолжительность : 1 ч. 21 м.
    Вид битрейта : Постоянный
    Битрейт : 192 Кбит/сек
    Каналы : 2 канала
    Расположение каналов : Front: L R
    Частота : 48,0 КГц
    Битовая глубина : 16 бит
    Метод сжатия : С потерями
    Размер потока : 112 Мбайт (9%)
    Выравнивание : Разделение по промежуткам
    Продолжительность промежутка : 42 мс. (1,00 видеокадр)
    Время предзагрузки промежутка : 500 мс.

    Размер скачиваемого торрента: 1.16 GB (1243293696 Bytes)

    Ловушка для родителей 2 / The Parent Trap II (1986) DVDRip | P торрент скачать бесплатно
    загрузка...
    Рейтинг →
     (голосов: 1, оценка 5/5, голосовать можно 1 раз )

    Другие торренты по теме:

  • Ловушка для призраков / Spirit Trap (2005) DVDRip
  • Ловушка для Золушки / Trap for Cinderella (2013) DVDRip | L2
  • Ловушка для Золушки / Trap for Cinderella (2013) BDRip 720p | L2
  • Ловушка для Золушки / Trap for Cinderella (2013) HDRip | L2
  • Ловушка для Золушки / Trap for Cinderella (2013) BDRip 1080p от CINEMANIA | L2
  • Ловушка для невесты / The Decoy Bride (2011) BDRip от HQCLUB | Лицензия скачать через торрент бесплатно
  • Ловушка для Адама
  • Ловушка для маньяка / Остановись в падении / Cran darrt (1970) DVDRip | L1 скачать через торрент бесплатно


    • Комментарии (0):

      Информация

      Информация

        Посетители, находящиеся в группе Гости, не могут оставлять комментарии в данной новости.

        ↓ Меню



        ↓ Опрос

        А Вы добавили сайт в закладки?
        Да
        Не


        Top 10 за месяц (Фильмы)