.
Авторизация | Регистрация
Хочешь лучшие торренты? Добавь свой email!
Добавить
» » Китайский квартал / Chinatown (1974) BDRip-AVC | iPhone | P2 скачать торрент бесплатно




    Китайский квартал / Chinatown (1974) BDRip-AVC | iPhone | P2 скачать торрент бесплатно

    Опубликовал: Админ | Дата: 27-02-2015, 11:10 | Просмотров: 279



    Китайский квартал / Chinatown (1974) BDRip-AVC | iPhone | P2

    Русское название: Китайский квартал
    Русское название в мировом прокате: Chinatown
    Создали в: 1974
    Категория жанра: драма, криминал, детектив
    Главный режиссер: Роман Полански
    Актеры: жек Николсон, Фэй Данауэй, Джон Хьюстон, Перри Лопес, Джон Хиллерман, Даррел Зверлинг, Дайан Лэдд, Рой Дженсон, Роман Полански, Ричард Бакалян

    Сюжет фильма:
    Гиттес принимает предложение загадочной богатой красавицы заняться расследованием обстоятельств тайного романа на стороне ее мужа — инженера.
    Согласившись на это дело, Гиттес не подозревал, что окажется в центре тайных скандалов, беспредела коррупции и скрытых махинаций, правда о которых всплывет однажды ночью вместе с телом несчастного инженера…


    Снималось в: США
    Киностудия: Paramount Pictures, Penthouse
    Время просмотра: 02:10:31
    Перевод текста: Русский профессиональный двухголосый закадровый

    Файл
    Кодек для видео: H.264
    Качество фильма: HDRip-AVC 480p iPhone
    Информация о видео: 640x362@851x362 (2.35:1) at 23.976 fps, AVC at 1800 kbps
    Информация о звуке:
    1: 48 kHz, AAC 2.0, 180 kbps - Русский профессиональный двухголосый закадровый
    2: 48 kHz, AAC 2.0, 180 kbps - Английский
    Субтитры: Английские

    Media Info

    General
    Complete name : E:BLURAYChinaTown.BlueBirdChinaTown.1974 (SD).m4v
    Format : MPEG-4
    Codec ID : M4V
    File size : 1.98 GiB
    Duration : 2h 10mn
    Overall bit rate mode : Variable
    Overall bit rate : 2 176 Kbps
    Movie name : Китайский квартал
    Performer : Роман Полански
    Genre : Drama
    Recorded date : UTC 1974-06-26 07:00:00
    Encoded date : UTC 2013-09-15 17:29:58
    Tagged date : UTC 2013-09-15 18:10:17
    Copyright : © Paramount Pictures, Penthouse
    Cover : Yes
    iTunEXTC : mpaa|R|400|

    sonm : Chinatown
    desc : Гиттес принимает предложение загадочной богатой красавицы заняться расследованием обстоятельств тайного романа на стороне ее мужа — инженера.
    ldes : Гиттес принимает предложение загадочной богатой красавицы заняться расследованием обстоятельств тайного романа на стороне ее мужа — инженера. / Согласившись на это дело, Гиттес не подозревал, что окажется в центре тайных скандалов, беспредела коррупции и скрытых махинаций, правда о которых всплывет однажды ночью вместе с телом несчастного инженера…
    hdvd : 0
    stik : 9
    cnID : 208600546
    xid : Apple:vendor_id:1974-365

    Video
    ID : 1
    Format : AVC
    Format/Info : Advanced Video Codec
    Format profile : Baseline@L3.0
    Format settings, CABAC : No
    Format settings, ReFrames : 2 frames
    Codec ID : avc1
    Codec ID/Info : Advanced Video Coding
    Duration : 2h 10mn
    Bit rate : 1 800 Kbps
    Maximum bit rate : 6 698 Kbps
    Width : 640 pixels
    Height : 362 pixels
    Display aspect ratio : 2.35:1
    Frame rate mode : Constant
    Frame rate : 23.976 fps
    Color space : YUV
    Chroma subsampling : 4:2:0
    Bit depth : 8 bits
    Scan type : Progressive
    Bits/(Pixel*Frame) : 0.324
    Stream size : 1.64 GiB (83%)
    Writing library : x264 core 138 r2359 704 48 3f879a0 tMod 8-bit@4:2:0 X86_64
    Encoding settings : cabac=0 / ref=2 / deblock=1:-1:-1 / analyse=0x1:0x131 / me=umh / subme=7 / psy=1 / fade_compensate=1.00 / psy_rd=0.90:0.15 / mixed_ref=1 / me_range=32 / chroma_me=1 / trellis=2 / 8x8dct=0 / cqm=0 / deadzone=21,11 / fast_pskip=0 / chroma_qp_offset=-3 / threads=18 / lookahead_threads=2 / sliced_threads=0 / nr=0 / decimate=0 / interlaced=0 / bluray_compat=0 / constrained_intra=0 / fgo=0 / bframes=0 / weightp=0 / keyint=250 / keyint_min=23 / scenecut=40 / intra_refresh=0 / rc_lookahead=60 / rc=2pass / mbtree=1 / bitrate=1800 / ratetol=1.0 / qcomp=0.70 / qpmin=0:0:0 / qpmax=69:69:69 / qpstep=4 / cplxblur=20.0 / qblur=0.5 / vbv_maxrate=5000 / vbv_bufsize=5000 / nal_hrd=none / ip_ratio=1.35 / aq=1:0.00 / aq-sensitivity=10.00 / aq-factor=1.00:1.00:1.00 / aq2=0 / aq3=0
    Language : English
    Encoded date : UTC 2013-09-15 17:29:58
    Tagged date : UTC 2013-09-15 17:30:14
    Matrix coefficients : BT.709

    Audio #1
    ID : 2
    Format : AAC
    Format/Info : Advanced Audio Codec
    Format profile : LC
    Codec ID : 40
    Duration : 2h 10mn
    Bit rate mode : Variable
    Bit rate : 184 Kbps
    Maximum bit rate : 231 Kbps
    Channel(s) : 2 channels
    Channel positions : Front: L R
    Sampling rate : 48.0 KHz
    Compression mode : Lossy
    Stream size : 172 MiB (8%)
    Title : AAC Russian DVO (R5)
    Language : Russian
    Encoded date : UTC 2013-09-15 17:30:08
    Tagged date : UTC 2013-09-15 17:30:14

    Audio #2
    ID : 3
    Format : AAC
    Format/Info : Advanced Audio Codec
    Format profile : LC
    Codec ID : 40
    Duration : 2h 10mn
    Bit rate mode : Variable
    Bit rate : 184 Kbps
    Maximum bit rate : 227 Kbps
    Channel(s) : 2 channels
    Channel positions : Front: L R
    Sampling rate : 48.0 KHz
    Compression mode : Lossy
    Stream size : 172 MiB (8%)
    Title : AAC English
    Language : English
    Encoded date : UTC 2013-09-15 17:30:11
    Tagged date : UTC 2013-09-15 17:30:14

    Text
    ID : 4
    Format : Timed Text
    Muxing mode : sbtl
    Codec ID : tx3g
    Duration : 2h 8mn
    Bit rate mode : Variable
    Bit rate : 58 bps
    Stream size : 54.9 KiB (0%)
    Title : Subtitle English
    Language : English
    Encoded date : UTC 2013-09-15 17:30:14
    Tagged date : UTC 2013-09-15 17:30:14

    Menu
    ID : 5
    Codec ID : text
    Duration : 2h 10mn
    Encoded date : UTC 2013-09-15 17:30:26
    Tagged date : UTC 2013-09-15 17:30:26
    Bit rate mode : CBR
    iTunes Meta Tags

    Sort Name: Chinatown
    XID: Apple:vendor_id:1974-365
    Content ID: 208600546
    Copyright: © Paramount Pictures, Penthouse
    ScreenWriters: Роберт Таун, Роман Полански
    Producers: Роберт Эванс, С. Эриксон
    Director: Roman Polanski
    Cast: Джек Николсон, Фэй Данауэй, Джон Хьюстон, Перри Лопес, Джон Хиллерман, Даррел Зверлинг, Дайан Лэдд, Рой Дженсон, Роман Полански, Ричард Бакалян
    Rating: R
    Long Deion: Гиттес принимает предложение загадочной богатой красавицы заняться расследованием обстоятельств тайного романа на стороне ее мужа — инженера.
    Согласившись на это дело, Гиттес не подозревал, что окажется в центре тайных скандалов, беспредела коррупции и скрытых махинаций, правда о которых всплывет однажды ночью вместе с телом несчастного инженера…
    Deion: Гиттес принимает предложение загадочной богатой красавицы заняться расследованием обстоятельств тайного романа на стороне ее мужа — инженера.
    Release Date: 1974-06-26T07:00:00Z
    Genre: Drama
    Artist: Роман Полански
    Name: Китайский квартал
    x264 Log

    x264 info: frame I:1225 Avg QP:16.42 size: 29429
    x264 info: frame P:186551 Avg QP:17.60 size: 9247
    x264 info: mb I I16..4: 35.9% 0.0% 64.1%
    x264 info: mb P I16..4: 1.0% 0.0% 1.0% P16..4: 51.7% 17.3% 9.5% 2.2% 1.0% skip:16.3%
    x264 info: coded y,uvDC,uvAC intra: 54.0% 62.0% 34.2% inter: 46.1% 31.9% 18.7%
    x264 info: i16 v,h,dc,p: 45% 15% 8% 32%
    x264 info: i4 v,h,dc,ddl,ddr,vr,hd,vl,hu: 29% 14% 12% 6% 8% 10% 7% 8% 5%
    x264 info: i8c dc,h,v,p: 59% 14% 21% 6%
    x264 info: ref P L0: 77.5% 22.5%
    x264 info: kb/s:1798.87
    Скриншоты для ознакомления




    Залил: gekka
    Размер скачиваемого торрента: 1.98 GB (2130004631 Bytes)

    Китайский квартал / Chinatown (1974) BDRip-AVC | iPhone | P2 торрент скачать бесплатно
    загрузка...
    Рейтинг →
     (голосов: 1, оценка 3/5, голосовать можно 1 раз )

    Другие торренты по теме:

  • Китайский квартал / Chinatown (1974) BDRip 1080p
  • Китайский квартал / Chinatown (1974) BDRip-AVC от Leonardo and Scarabey | P
  • Китайский квартал / Chinatown (1974) BDRip 720p от NNNB | P, P2, A
  • Китайский квартал / Chinatown (1974) HDTVRip 1080p | P


    • Комментарии (0):

      Информация

      Информация

        Посетители, находящиеся в группе Гости, не могут оставлять комментарии в данной новости.

        ↓ Меню



        ↓ Опрос

        А Вы добавили сайт в закладки?
        Да
        Не


        Top 10 за месяц (Фильмы)