.
Авторизация | Регистрация
Хочешь лучшие торренты? Добавь свой email!
Добавить
» » Ловец снов / Dreamcatcher (2003) WEB-DL 720p | D, P, P2, A скачать торрент бесплатно




    Ловец снов / Dreamcatcher (2003) WEB-DL 720p | D, P, P2, A скачать торрент бесплатно

    Опубликовал: Админ | Дата: 27-02-2015, 11:10 | Просмотров: 361



    Детально о кино
    Русское название: Ловец снов
    Русское название в мировом прокате: Dreamcatcher
    Создали в: 2003
    Категория жанра: ужасы, фантастика, триллер, драма
    Главный режиссер: Лоуренс Кэздан
    Актеры: Морган Фримен — генерал Кертис, Томас Джейн — психиатр Генри Дэвлин, Джейсон Ли — Джо Кларенден, Дэмиэн Льюис — Джоунси, Тимоти Олифант — Пит Мур, Том Сайзмор — полковник Оуэн Андерхилл, Донни Уолберг — Даддитс.

    Сюжет фильма:
    Джонси, Генри, Пит и Бивер. Двадцать лет назад они были просто мальчишками, проживающими в одном небольшом городке штата Мэн, — детьми, нашедшими в себе достаточно мужества, чтобы героически ответить на детскую жестокость. Награда за спасение странноватого мальчика по имени Даддитс совершенно неожиданно пришла к ним в виде сверхъестественных сил, связавших всех пятерых крепчайшими узами братства.

    Но когда на ежегодной охоте друзья собираются вместе в лесной хижине, то вместо ожидаемой теплой веселой атмосферы над ними начинает сгущаться абсолютное зло, приносящее гибель. Сначала к ним попадает незнакомец — затерявшийся в лесу охотник, которому и невдомек, что его организм поражен смертельной заразой. А вслед за ним возникает неистовствующий снежный буран, в эпицентре которого движется нечто еще более зловещее… Впереди — крупнейшее противостояние ужасу, не имеющему аналогов.




    Снималось в: США, Канада, Австрия
    Киностудия: Castle Rock Entertainment, Village Roadshow Pictures, Kasdan Pictures
    Время просмотра: 02:13:43
    Перевод текста: Дублированный, Профессиональный многоголосый, Профессиональный двухголосый, Авторский одноголосый, Оригинал

    Файл
    Контейнер: MKV
    Качество фильма: WEB-DL 720p
    Информация о видео: 1280x718 (16:9), 23.976 fps, MPEG-4 AVC, 3941 Kbps
    Информация о звуке:
    Информация о звуке #1: AC3, 448 Kbps, 48.0 KHz, 6 ch (Rus) Дублированный, iTunes Russia
    Информация о звуке #2: AC3, 192 Kbps, 48.0 KHz, 2 ch (Rus) Многоголосый закадровый, PTP
    Информация о звуке #3: AC3, 192 Kbps, 48.0 KHz, 2 ch (Rus) Профессиональный двухголосый, Universal Channel
    Информация о звуке #4: AC3, 192 Kbps, 48.0 KHz, 2 ch (Ukr) Многоголосый закадровый, ICTV
    Информация о звуке #5: AC3, 192 Kbps, 48.0 KHz, 2 ch (Ukr) Многоголосый закадровый, 1 1
    Информация о звуке #6: AC3, 384 Kbps, 48.0 KHz, 6 ch (Rus) Авторский одноголосый, А.Гаврилов
    Информация о звуке #7: AC3, 384 Kbps, 48.0 KHz, 6 ch (Rus) Авторский одноголосый, Ю.Живов
    Информация о звуке #8: AC3, 192 Kbps, 48.0 KHz, 2 ch (Eng) Оригинал
    Субтитры: Русские (форсированные, полные) Английские

    Скриншоты для ознакомления


    MediaInfo
    Формат : Matroska
    Версия формата : Version 2
    Размер файла : 5,83 Гбайт
    Продолжительность : 2 ч. 13 м.
    Общий поток : 6242 Кбит/сек
    Дата кодирования : UTC 2014-02-09 14:39:57
    Программа кодирования : mkvmerge v5.4.0 (;Piper;) built on Mar 10 2012 13:34:39
    Библиотека кодирования : libebml v1.2.3 libmatroska v1.3.0

    Видео
    Идентификатор : 1
    Формат : AVC
    Формат/Информация : Advanced Video Codec
    Профиль формата : High@L3.1
    Параметр CABAC формата : Нет
    Параметр ReFrames формата : 2 кадра
    Идентификатор кодека : V_MPEG4/ISO/AVC
    Продолжительность : 2 ч. 13 м.
    Битрейт : 3941 Кбит/сек
    Ширина : 1280 пикселей
    Высота : 718 пикселей
    Соотношение сторон : 16:9
    Режим частоты кадров : Постоянный
    Частота кадров : 23,976 кадра/сек
    Цветовое пространство : YUV
    Субдискретизация насыщенности : 4:2:0
    Битовая глубина : 8 бит
    Тип развёртки : Прогрессивная
    Бит/(Пиксели*Кадры) : 0.179
    Размер потока : 3,68 Гбайт (63%)
    Заголовок : Dreamcatcher / Ловец снов (2003)
    Язык : English
    Default : Да
    Forced : Нет
    Основные цвета : BT.709
    Характеристики трансфера : BT.709
    Коэффициенты матрицы : BT.709

    Аудио #1
    Идентификатор : 2
    Формат : AC-3
    Формат/Информация : Audio Coding 3
    Расширение режима : CM (complete main)
    Параметр Endianness формата : Big
    Идентификатор кодека : A_AC3
    Продолжительность : 2 ч. 13 м.
    Вид битрейта : Постоянный
    Битрейт : 448 Кбит/сек
    Каналы : 6 каналов
    Расположение каналов : Front: L C R, Side: L R, LFE
    Частота : 48,0 КГц
    Битовая глубина : 16 бит
    Метод сжатия : С потерями
    Размер потока : 429 Мбайт (7%)
    Заголовок : DUB (Russian) iTunes Russia
    Язык : Russian
    Default : Да
    Forced : Нет

    Аудио #2
    Идентификатор : 3
    Формат : AC-3
    Формат/Информация : Audio Coding 3
    Расширение режима : CM (complete main)
    Параметр Endianness формата : Big
    Идентификатор кодека : A_AC3
    Продолжительность : 2 ч. 13 м.
    Вид битрейта : Постоянный
    Битрейт : 192 Кбит/сек
    Каналы : 2 канала
    Расположение каналов : Front: L R
    Частота : 48,0 КГц
    Битовая глубина : 16 бит
    Метод сжатия : С потерями
    Размер потока : 184 Мбайт (3%)
    Заголовок : MVO (Russian) PTP
    Язык : Russian
    Default : Нет
    Forced : Нет

    Аудио #3
    Идентификатор : 4
    Формат : AC-3
    Формат/Информация : Audio Coding 3
    Расширение режима : CM (complete main)
    Параметр Endianness формата : Big
    Идентификатор кодека : A_AC3
    Продолжительность : 2 ч. 13 м.
    Вид битрейта : Постоянный
    Битрейт : 192 Кбит/сек
    Каналы : 2 канала
    Расположение каналов : Front: L R
    Частота : 48,0 КГц
    Битовая глубина : 16 бит
    Метод сжатия : С потерями
    Размер потока : 184 Мбайт (3%)
    Заголовок : DVO (Russian) Universal Channel
    Язык : Russian
    Default : Нет
    Forced : Нет

    Аудио #4
    Идентификатор : 5
    Формат : AC-3
    Формат/Информация : Audio Coding 3
    Расширение режима : CM (complete main)
    Параметр Endianness формата : Big
    Идентификатор кодека : A_AC3
    Продолжительность : 2 ч. 13 м.
    Вид битрейта : Постоянный
    Битрейт : 192 Кбит/сек
    Каналы : 2 канала
    Расположение каналов : Front: L R
    Частота : 48,0 КГц
    Битовая глубина : 16 бит
    Метод сжатия : С потерями
    Размер потока : 184 Мбайт (3%)
    Заголовок : MVO (Ukrainian) ICTV
    Язык : Ukrainian
    Default : Нет
    Forced : Нет

    Аудио #5
    Идентификатор : 6
    Формат : AC-3
    Формат/Информация : Audio Coding 3
    Расширение режима : CM (complete main)
    Параметр Endianness формата : Big
    Идентификатор кодека : A_AC3
    Продолжительность : 2 ч. 13 м.
    Вид битрейта : Постоянный
    Битрейт : 192 Кбит/сек
    Каналы : 2 канала
    Расположение каналов : Front: L R
    Частота : 48,0 КГц
    Битовая глубина : 16 бит
    Метод сжатия : С потерями
    Размер потока : 184 Мбайт (3%)
    Заголовок : MVO (Ukrainian) 1 1
    Язык : Ukrainian
    Default : Нет
    Forced : Нет

    Аудио #6
    Идентификатор : 7
    Формат : AC-3
    Формат/Информация : Audio Coding 3
    Расширение режима : CM (complete main)
    Параметр Endianness формата : Big
    Идентификатор кодека : A_AC3
    Продолжительность : 2 ч. 13 м.
    Вид битрейта : Постоянный
    Битрейт : 384 Кбит/сек
    Каналы : 6 каналов
    Расположение каналов : Front: L C R, Side: L R, LFE
    Частота : 48,0 КГц
    Битовая глубина : 16 бит
    Метод сжатия : С потерями
    Размер потока : 367 Мбайт (6%)
    Заголовок : AVO (A.Гаврилов)
    Язык : Russian
    Default : Нет
    Forced : Нет

    Аудио #7
    Идентификатор : 8
    Формат : AC-3
    Формат/Информация : Audio Coding 3
    Расширение режима : CM (complete main)
    Параметр Endianness формата : Big
    Идентификатор кодека : A_AC3
    Продолжительность : 2 ч. 13 м.
    Вид битрейта : Постоянный
    Битрейт : 384 Кбит/сек
    Каналы : 6 каналов
    Расположение каналов : Front: L C R, Side: L R, LFE
    Частота : 48,0 КГц
    Битовая глубина : 16 бит
    Метод сжатия : С потерями
    Размер потока : 367 Мбайт (6%)
    Заголовок : AVO (Ю.Живов)
    Язык : Russian
    Default : Нет
    Forced : Нет

    Аудио #8
    Идентификатор : 9
    Формат : AC-3
    Формат/Информация : Audio Coding 3
    Расширение режима : CM (complete main)
    Параметр Endianness формата : Big
    Идентификатор кодека : A_AC3
    Продолжительность : 2 ч. 13 м.
    Вид битрейта : Постоянный
    Битрейт : 192 Кбит/сек
    Каналы : 2 канала
    Расположение каналов : Front: L R
    Частота : 48,0 КГц
    Битовая глубина : 16 бит
    Метод сжатия : С потерями
    Размер потока : 184 Мбайт (3%)
    Заголовок : Original (English)
    Язык : English
    Default : Нет
    Forced : Нет

    Текст #1
    Идентификатор : 10
    Формат : UTF-8
    Идентификатор кодека : S_TEXT/UTF8
    Идентификатор кодека/Информация : UTF-8 Plain Text
    Заголовок : Rus forced
    Язык : Russian
    Default : Да
    Forced : Да

    Текст #2
    Идентификатор : 11
    Формат : UTF-8
    Идентификатор кодека : S_TEXT/UTF8
    Идентификатор кодека/Информация : UTF-8 Plain Text
    Заголовок : Rus
    Язык : Russian
    Default : Нет
    Forced : Нет

    Текст #3
    Идентификатор : 12
    Формат : UTF-8
    Идентификатор кодека : S_TEXT/UTF8
    Идентификатор кодека/Информация : UTF-8 Plain Text
    Заголовок : Eng
    Язык : English
    Default : Нет
    Forced : Нет

    Меню
    00:00:00.000 : en:1. Opening Credits
    00:02:43.000 : en:2. How Could You Know This?
    00:06:15.000 : en:3. Just Luck Is All
    00:10:33.000 : en:4. Jonesy;s Accident
    00:13:29.000 : en:5. I Saw Duddits
    00:16:54.000 : en:6. Memory Warehouse
    00:20:30.000 : en:7. Rescuing Duddits
    00:26:14.000 : en:8. Rick McCarthy
    00:30:22.000 : en:9. The Blue Ribbon Baby
    00:34:33.000 : en:10. The Scout Accident
    00:36:28.000 : en:11. Animal Exodus
    00:40:28.000 : en:12. Sit Tight, Buddy
    00:46:02.000 : en:13. The Weasel Attacks
    00:49:38.000 : en:14. What Do You Want?
    00:52:29.000 : en:15. Curtis and Owen
    00:56:03.000 : en:16. The Curtis Line
    00:57:23.000 : en:17. Pete and the Snowbank
    00:59:44.000 : en:18. I;ll Never Drink Again
    01:04:08.000 : en:19. You;re Not Jonesy
    01:05:39.000 : en:20. The Line
    01:08:04.000 : en:21. The Cabin Transformed
    01:10:56.000 : en:22. Duddits; Gift
    01:16:54.000 : en:23. Destroying the Ship
    01:21:52.000 : en:24. All Right... I;ll Bite
    01:26:26.000 : en:25. Race Through the Warehouse
    01:30:04.000 : en:26. Mind Probe
    01:31:27.000 : en:27. Except For the Dreams
    01:35:01.000 : en:28. You;ve Got Two Problems
    01:37:23.000 : en:29. Jonesy Calling
    01:40:51.000 : en:30. Go Save the World
    01:44:24.000 : en:31. Making Himself at Home
    01:46:58.000 : en:32. Mr. Gray Wants Water
    01:50:00.000 : en:33. Quabbin Reservoir
    01:53:27.000 : en:34. So Long, Doctor
    01:56:30.000 : en:35. Don;t You Know Me, H?
    01:59:48.000 : en:36. I Duddits!
    02:03:51.000 : en:37. End Credits
    02:08:05.000 : en:38. Meeting Josie



    Релиз подготовил: Релиз подготовил: За релиз спасибо VegA
    Залил: Soroka1989
    Размер скачиваемого торрента: 5.83 GB (6260191017 Bytes)

    Ловец снов / Dreamcatcher (2003) WEB-DL 720p | D, P, P2, A торрент скачать бесплатно
    загрузка...
    Рейтинг →
     (голосов: 1, оценка 3/5, голосовать можно 1 раз )

    Другие торренты по теме:

  • Ловец снов / Dreamcatcher (2003) DVDRip-AVC | D, P2
  • Ловец снов / Dreamcatcher (2003) WEBRip-AVC от Rulya74
  • Ловец снов / Dreamcatcher (2003) BDRip-AVC | D, P, P2, A
  • Ловец снов / Dreamcatcher
  • Ловец снов / Dreamcatcher (2003) HDRip от Scarabey | D
  • Стивен Кинг - Ловец снов (2015) MP3
  • Ловец снов / Dreamcatcher (2003) WEB-DL 720p | Open Matte
  • Ловец снов / Dreamcatcher (2003) WEB-DLRip от Bathory | D | Open Matte


    • Комментарии (0):

      Информация

      Информация

        Посетители, находящиеся в группе Гости, не могут оставлять комментарии в данной новости.

        ↓ Меню



        ↓ Опрос

        А Вы добавили сайт в закладки?
        Да
        Не


        Top 10 за месяц (Фильмы)