.
Авторизация | Регистрация
Хочешь лучшие торренты? Добавь свой email!
Добавить
» » Тор 2: Царство тьмы / Thor: The Dark World (2013) BDRip-AVC | iPhone | iTunes скачать торрент бесплатно




    Тор 2: Царство тьмы / Thor: The Dark World (2013) BDRip-AVC | iPhone | iTunes скачать торрент бесплатно

    Опубликовал: Админ | Дата: 27-02-2015, 11:10 | Просмотров: 253



    Тор 2: Царство тьмы / Thor: The Dark World (2013) BDRip-AVC | iPhone | iTunes

    Русское название: Тор 2: Царство тьмы
    Русское название в мировом прокате: Thor: The Dark World
    Создали в: 2013
    Категория жанра: фэнтези, боевик, приключения
    Главный режиссер: Алан Тейлор
    Актеры: Крис Хемсворт, Натали Портман, Том Хиддлстон, Энтони Хопкинс, Кристофер Экклстон, Джейми Александер, Закари Левай, Рэй Стивенсон, Таданобу Асано, Идрис Эльба

    Сюжет фильма:
    Продолжение приключений одного из членов команды Мстителей, скандинавского бога Тора, которому на этот раз в одиночку предстоит защитить Землю и все девять миров от нашествия неизвестного врага.
    Могучему Тору предстоит вновь сразиться за восстановление порядка в галактике, встретившись лицом к лицу с древней инопланетной расой, ведомой злодеем Малекитом, жаждущим установить в девяти мирах власть тьмы. Столкнувшись с врагом, более могущественным чем сам Один и всё воинство Асгарда, Тор должен собрать силы для решающей битвы. Его ждёт опасное путешествие и долгожданная встреча со своей земной возлюбленной Джейн Фостер. Сможет ли Тор рискнуть самым дорогим, чтобы не дать тьме воцариться на просторах вселенной?


    Снималось в: США
    Киностудия: Marvel
    Время просмотра: 01:52:03
    Перевод текста: Русский дублированный (iTunes)

    Файл
    Кодек для видео: H.264
    Качество фильма: HDRip-AVC 480p iPhone
    Информация о видео: 640x356@851x356 (2.40:1) at 23.976 fps, AVC at 1483 kbps
    Информация о звуке:
    1: 48 kHz, AAC 2.0, 170 kbps - Русский дублированный (iTunes)
    2: 48 kHz, AAC 2.0, 180 kbps - Английский
    Субтитры: Русские

    Media Info

    General
    Complete name : C:CREATE480outThor-The Dark World.2013 (SD).m4v
    Format : MPEG-4
    Codec ID : M4V
    File size : 1.45 GiB
    Duration : 1h 52mn
    Overall bit rate mode : Variable
    Overall bit rate : 1 849 Kbps
    Movie name : Тор 2: Царство тьмы
    Performer : Alan Taylor
    Genre : Action Adventure
    Recorded date : UTC 2013-11-08 08:00:00
    Encoded date : UTC 2014-02-13 11:20:03
    Tagged date : UTC 2014-02-13 12:18:38
    Copyright : © 2013 Marvel
    Cover : Yes
    iTunEXTC : mpaa|PG-13|300|

    sonm : Thor: The Dark World
    desc : Тору предстоит сразиться за спасение Земли и Девяти Миров от таинственного врага из времен, предшествовавших возникновению вселенной. После событий Тора и Мстителей главный герой борется за восстановление порядка в космосе...
    ldes : Тору предстоит сразиться за спасение Земли и Девяти Миров от таинственного врага из времен, предшествовавших возникновению вселенной. После событий Тора и Мстителей главный герой борется за восстановление порядка в космосе, но древняя раса во главе с мстительным Малекитом возвращается, чтобы погрузить вселенную обратно во тьму. Столкнувшись с врагом, которому не способен противостоять ни Один, ни весь Асгард, Тор отправляется в самое рискованное путешествие, которое воссоединит его с Джейн Фостер с Земли и заставит пожертвовать всем ради спасения вселенной.
    hdvd : 0
    stik : 9
    cnID : 731796731
    xid : Apple:vendor_id:2013-595938

    Video
    ID : 1
    Format : AVC
    Format/Info : Advanced Video Codec
    Format profile : Baseline@L3.0
    Format settings, CABAC : No
    Format settings, ReFrames : 2 frames
    Codec ID : avc1
    Codec ID/Info : Advanced Video Coding
    Duration : 1h 52mn
    Bit rate : 1 483 Kbps
    Maximum bit rate : 7 213 Kbps
    Width : 640 pixels
    Height : 356 pixels
    Display aspect ratio : 2.40:1
    Frame rate mode : Constant
    Frame rate : 23.976 fps
    Color space : YUV
    Chroma subsampling : 4:2:0
    Bit depth : 8 bits
    Scan type : Progressive
    Bits/(Pixel*Frame) : 0.271
    Stream size : 1.16 GiB (80%)
    Title : Thor _ The Dark World _2013_
    Writing library : x264 core 140 r2377 40 929f149 tMod 8-bit@4:2:0 X86_64
    Encoding settings : cabac=0 / ref=2 / deblock=1:-2:-2 / analyse=0x1:0x131 / me=umh / subme=7 / psy=1 / fade_compensate=1.00 / psy_rd=1.05:0.10 / mixed_ref=1 / me_range=32 / chroma_me=1 / trellis=2 / 8x8dct=0 / cqm=0 / deadzone=21,11 / fast_pskip=1 / chroma_qp_offset=-3 / threads=12 / lookahead_threads=2 / sliced_threads=0 / nr=0 / decimate=0 / interlaced=0 / bluray_compat=0 / constrained_intra=0 / fgo=0 / bframes=0 / weightp=0 / keyint=250 / keyint_min=23 / scenecut=40 / intra_refresh=0 / rc_lookahead=120 / rc=crf / mbtree=1 / crf=19.0000 / qcomp=0.65 / qpmin=0:0:0 / qpmax=69:69:69 / qpstep=4 / vbv_maxrate=5000 / vbv_bufsize=5000 / crf_max=0.0 / nal_hrd=none / filler=0 / ip_ratio=1.35 / aq=4:0.90 / aq-sensitivity=10.00 / aq-factor=1.00:1.00:1.00 / aq2=0 / aq3=0
    Language : English
    Encoded date : UTC 2014-02-13 11:20:03
    Tagged date : UTC 2014-02-13 11:20:50
    Matrix coefficients : BT.709

    Audio #1
    ID : 2
    Format : AAC
    Format/Info : Advanced Audio Codec
    Format profile : LC
    Codec ID : 40
    Duration : 1h 52mn
    Bit rate mode : Variable
    Bit rate : 167 Kbps
    Maximum bit rate : 224 Kbps
    Channel(s) : 2 channels
    Channel positions : Front: L R
    Sampling rate : 48.0 KHz
    Compression mode : Lossy
    Stream size : 134 MiB (9%)
    Title : DUB _iTunes_
    Language : Russian
    Encoded date : UTC 2014-02-13 11:05:59
    Tagged date : UTC 2014-02-13 11:20:50

    Audio #2
    ID : 3
    Format : AAC
    Format/Info : Advanced Audio Codec
    Format profile : LC
    Codec ID : 40
    Duration : 1h 52mn
    Bit rate mode : Variable
    Bit rate : 185 Kbps
    Maximum bit rate : 277 Kbps
    Channel(s) : 2 channels
    Channel positions : Front: L R
    Sampling rate : 48.0 KHz
    Compression mode : Lossy
    Stream size : 148 MiB (10%)
    Title : Original
    Language : English
    Encoded date : UTC 2014-02-13 11:14:30
    Tagged date : UTC 2014-02-13 11:20:50

    Text
    ID : 4
    Format : Timed Text
    Muxing mode : sbtl
    Codec ID : tx3g
    Duration : 1h 45mn
    Bit rate mode : Variable
    Bit rate : 69 bps
    Stream size : 53.6 KiB (0%)
    Title : Subtitle Russian
    Language : Russian
    Encoded date : UTC 2014-02-13 11:20:50
    Tagged date : UTC 2014-02-13 11:20:50

    Menu
    ID : 5
    Codec ID : text
    Duration : 1h 52mn
    Encoded date : UTC 2014-02-13 11:22:48
    Tagged date : UTC 2014-02-13 11:22:48
    Bit rate mode : CBR
    iTunes Meta Tags

    Sort Name: Thor: The Dark World
    XID: Apple:vendor_id:2013-595938
    Content ID: 731796731
    Copyright: © 2013 Marvel
    ScreenWriters: Кристофер Йост, Кристофер Маркус, Стивен МакФили
    Producers: Кевин Файги, Виктория Алонсо, Луис Д’Эспозито
    Director: Алан Тейлор
    Cast: Крис Хемсворт, Натали Портман, Том Хиддлстон, Энтони Хопкинс, Кристофер Экклстон, Джейми Александер, Закари Левай, Рэй Стивенсон, Таданобу Асано, Идрис Эльба
    Rating: PG-13
    Long Deion: Тору предстоит сразиться за спасение Земли и Девяти Миров от таинственного врага из времен, предшествовавших возникновению вселенной. После событий Тора и Мстителей главный герой борется за восстановление порядка в космосе, но древняя раса во главе с мстительным Малекитом возвращается, чтобы погрузить вселенную обратно во тьму. Столкнувшись с врагом, которому не способен противостоять ни Один, ни весь Асгард, Тор отправляется в самое рискованное путешествие, которое воссоединит его с Джейн Фостер с Земли и заставит пожертвовать всем ради спасения вселенной.
    Deion: Тору предстоит сразиться за спасение Земли и Девяти Миров от таинственного врага из времен, предшествовавших возникновению вселенной. После событий Тора и Мстителей главный герой борется за восстановление порядка в космосе...
    Release Date: 2013-11-08T08:00:00Z
    Genre: Action Adventure
    Artist: Alan Taylor
    Name: Тор 2: Царство тьмы
    x264 Log

    x264 info: frame I:4435 Avg QP:17.73 size: 20348
    x264 info: frame P:156763 Avg QP:19.35 size: 7375
    x264 info: mb I I16..4: 42.2% 0.0% 57.8%
    x264 info: mb P I16..4: 2.2% 0.0% 3.0% P16..4: 39.7% 15.0% 7.5% 1.4% 0.6% skip:30.5%
    x264 info: coded y,uvDC,uvAC intra: 52.7% 67.8% 38.7% inter: 33.7% 27.0% 13.1%
    x264 info: i16 v,h,dc,p: 44% 17% 11% 28%
    x264 info: i4 v,h,dc,ddl,ddr,vr,hd,vl,hu: 33% 14% 15% 6% 7% 8% 6% 7% 4%
    x264 info: i8c dc,h,v,p: 53% 15% 24% 8%
    x264 info: ref P L0: 78.2% 21.8%
    x264 info: kb/s:1483.03
    Скриншоты для ознакомления




    Залил: gekka
    Размер скачиваемого торрента: 1.45 GB (1554207799 Bytes)

    Тор 2: Царство тьмы / Thor: The Dark World (2013) BDRip-AVC | iPhone | iTunes торрент скачать бесплатно
    загрузка...
    Рейтинг →
     (голосов: 1, оценка 3/5, голосовать можно 1 раз )

    Другие торренты по теме:

  • Василий Сахаров - Принц Тор 2. Принц Тор (2017) MP3
  • Тор 2 Царство тьмы (2013)
  • Тор 2: Царство тьмы / Thor: The Dark World (2013) DCPrip | 3D-Video | Трейлер скачать через торрент бесплатно
  • Тор 2: Царство тьмы / Thor: The Dark World (2013) HDTVRip 1080p | Трейлер скачать через торрент бесплатно
  • Тор 2: Царство тьмы / Thor: The Dark World (2013) TS
  • Тор 2: Царство тьмы / Thor: The Dark World (2013) WEBRip-AVC | Звук с TS скачать через торрент бесплатно
  • Тор 2: Царство тьмы / Thor: The Dark World (2013) WEBRip | Звук с TS скачать через торрент бесплатно
  • Тор 2: Царство тьмы / Thor: The Dark World (2013) WEB-DL 720p | Звук с TS скачать через торрент бесплатно


    • Комментарии (0):

      Информация

      Информация

        Посетители, находящиеся в группе Гости, не могут оставлять комментарии в данной новости.

        ↓ Меню



        ↓ Опрос

        А Вы добавили сайт в закладки?
        Да
        Не


        Top 10 за месяц (Фильмы)