.
Авторизация | Регистрация
Хочешь лучшие торренты? Добавь свой email!
Добавить
» » 1943 (2013) DVDRip от New-Team | лицензия скачать через торрент бесплатно




    1943 (2013) DVDRip от New-Team | лицензия скачать через торрент бесплатно

    Опубликовал: Админ | Дата: 27-02-2015, 11:10 | Просмотров: 229



    Снималось в: Россия, Украина / Россия 1
    Категория жанра: военный, драма
    Создали в: 2013
    Время просмотра: 16 x ~00:43:30

    Перевод текста: не требуется
    Субтитры подготовлены: нет
    Оригинальная аудиодорожка: русский

    Главный режиссер: Валерий Шалыга

    Актеры: Александр Пашков, Йоханес Габриель, Любовь Тихомирова, Дарья Баранова, Ольга Олексий, Владимир Башкиров, Егор Баринов, Анатолий Гущин, Нина Усатова, Андрей Саминин...

    Сюжет: Сериал о событиях 1943 года, когда после разгромных событий под Сталинградом немецкие войска готовятся к реваншу. На оккупированную немецкими войсками территорию выбросили советскую десантную группу.
    Боевым заданием погибшей разведгруппы было разведать планы готовящегося немецкого контрнаступления, которое должно было исходить или из Белоруссии, или на Курском направлении. Вся группа гибнет, и лишь одна девушка-радистка Катя остается в живых…



    Качество фильма: DVDRip (2 x DVD9 R5)
    Тип видео: AVI

    Информация о видео: 720x400 (16:9), 25.000 fps, XViD ~ 2000 kbps avg, 0.278 bit/pixel
    Информация о звуке: 48 kHz, АС3 2 ch, 192 kbps, русский

    Раздача от:
    MediaInfo

    Общее
    Полное имя : 1943.2013.O.DVDRip_New-Team_by_avproh1.avi
    Формат : AVI
    Формат/Информация : Audio Video Interleave
    Размер файла : 683 Мбайт
    Продолжительность : 43 м.
    Общий поток : 2201 Кбит/сек
    Программа кодирования : VirtualDubModRus 1.5.10.2 (build 2542/release)
    Библиотека кодирования : VirtualDubMod build 2542/release

    Видео
    Идентификатор : 0
    Формат : MPEG-4 Visual
    Профиль формата : Advanced Simple@L5
    Параметр BVOP формата : 1
    Параметр QPel формата : Нет
    Параметр GMC формата : Без точки перехода
    Параметр матрицы формата : Выборочная
    Идентификатор кодека : XVID
    Идентификатор кодека/Подсказка : XviD
    Продолжительность : 43 м.
    Битрейт : 1999 Кбит/сек
    Ширина : 720 пикселей
    Высота : 400 пикселей
    Соотношение сторон : 16:9
    Частота кадров : 25,000 кадров/сек
    Цветовое пространство : YUV
    Субдискретизация насыщенности : 4:2:0
    Битовая глубина : 8 бит
    Тип развёртки : Прогрессивная
    Метод сжатия : С потерями
    Бит/(Пиксели*Кадры) : 0.278
    Размер потока : 620 Мбайт (91%)
    Библиотека кодирования : XviD 73

    Аудио
    Идентификатор : 1
    Формат : AC-3
    Формат/Информация : Audio Coding 3
    Расширение режима : CM (complete main)
    Параметр Endianness формата : Big
    Идентификатор кодека : 2000
    Продолжительность : 43 м.
    Вид битрейта : Постоянный
    Битрейт : 192 Кбит/сек
    Каналы : 1 канал
    Расположение каналов : Front: C
    Частота : 48,0 КГц
    Битовая глубина : 16 бит
    Метод сжатия : С потерями
    Размер потока : 59,5 Мбайт (9%)
    Выравнивание : Разделение по промежуткам
    Продолжительность промежутка : 40 мс. (1,00 видеокадр)
    Время предзагрузки промежутка : 500 мс.

    Скриншоты для ознакомления:



    Резервные скриншоты:



    Залил: avproh
    Размер скачиваемого торрента: 10.79 GB (11587196928 Bytes)

    1943 (2013) DVDRip от New-Team | лицензия скачать через торрент бесплатно
    загрузка...
    Рейтинг →
     (голосов: 1, оценка 5/5, голосовать можно 1 раз )

    Другие торренты по теме:

  • 1943 (2013) DVB
  • 1943 (2013) SATRip
  • 1943 (2013) HDTVRip от Files-x
  • 1943 (2013) HDTV 1080i
  • 1943 (2013) HDTVRip 720p
  • 1943 (2013) 2xDVD9 R5 от New-Team | лицензия скачать через торрент бесплатно
  • 1943 (2013) DVDRip-AVC от New-Team | лицензия скачать через торрент бесплатно
  • 1943 (2013) WEB-DL 1080p от MediaClub скачать через торрент бесплатно


    • Комментарии (0):

      Информация

      Информация

        Посетители, находящиеся в группе Гости, не могут оставлять комментарии в данной новости.

        ↓ Меню



        ↓ Опрос

        А Вы добавили сайт в закладки?
        Да
        Не


        Top 10 за месяц (Фильмы)