.
Авторизация | Регистрация
Хочешь лучшие торренты? Добавь свой email!
Добавить
» » Эффект колибри / Hummingbird (2013) BDRip-AVC | iPhone | D скачать через торрент бесплатно




    Эффект колибри / Hummingbird (2013) BDRip-AVC | iPhone | D скачать через торрент бесплатно

    Опубликовал: Админ | Дата: 27-02-2015, 11:10 | Просмотров: 311



    Эффект колибри / Hummingbird (2013) BDRip-AVC | iPhone | D

    Русское название: Эффект колибри
    Русское название в мировом прокате: Hummingbird
    Создали в: 2013
    Категория жанра: триллер, драма, криминал, боевик
    Главный режиссер: Стивен Найт
    Актеры: Джейсон Стэйтем, Агата Бузек, Бенедикт Вонг, Вики МакКлюр, Гер Райан, Юссуф Керкур, Энтони Моррис, Виктория Бьюик, Кристиан Брассингтон, Дэниэл Уэбб

    Сюжет фильма:
    Бывший спецназовец Джоуи Джонс пытается начать новую жизнь. Он соглашается работать на азиатскую мафию. Но проникая все глубже в криминальный мир родного города, он понимает, что не может спокойно смотреть на творящееся в нем беззаконие. Когда от рук бандитов погибает его возлюбленная Изабель, Джоуи решает восстановить справедливость. Он начинает расследование, которое ведет его на самый верх преступного синдиката.


    Снималось в: США, Великобритания
    Киностудия: © Lionsgate, IM Global, Shoebox Films
    Время просмотра: 01:40:02
    Перевод текста: Русский дублированный

    Файл
    Кодек для видео: H.264
    Качество фильма: BDRip-AVC 480p iPhone
    Информация о видео: 640x480@851x480 (16:9) at 23.976 fps, AVC at 1800 kbps
    Информация о звуке:
    1: 48 kHz, AAC 2.0, 192 kbps - Русский дублированный
    2: 48 kHz, AAC 2.0, 192 kbps - Английский
    Субтитры: отсутствуют

    Media Info

    General
    Complete name : C:CREATE480outHummingbird.2013 (SD).m4v
    Format : MPEG-4
    Codec ID : M4V
    File size : 1.53 GiB
    Duration : 1h 40mn
    Overall bit rate mode : Variable
    Overall bit rate : 2 189 Kbps
    Movie name : Эффект колибри
    Performer : Стивен Найт
    Genre : Action
    Recorded date : UTC 2013-06-28 08:00:00
    Encoded date : UTC 2013-08-31 11:11:07
    Tagged date : UTC 2013-08-31 13:07:16
    Copyright : © Lionsgate, IM Global, Shoebox Films
    Cover : Yes
    Comment : Месть не дает облегчения
    iTunEXTC : mpaa|R|400|

    sonm : Hummingbird
    desc : Бывший спецназовец Джоуи Джонс пытается начать новую жизнь. Он соглашается работать на азиатскую мафию. Но проникая все глубже в криминальный мир родного города, он понимает, что не может спокойно смотреть на творящееся в нем беззаконие.
    ldes : Бывший спецназовец Джоуи Джонс пытается начать новую жизнь. Он соглашается работать на азиатскую мафию. Но проникая все глубже в криминальный мир родного города, он понимает, что не может спокойно смотреть на творящееся в нем беззаконие. Когда от рук бандитов погибает его возлюбленная Изабель, Джоуи решает восстановить справедливость. Он начинает расследование, которое ведет его на самый верх преступного синдиката.
    hdvd : 0
    stik : 9
    cnID : 607288
    xid : Apple:vendor_id:2013-607288

    Video
    ID : 1
    Format : AVC
    Format/Info : Advanced Video Codec
    Format profile : Baseline@L3.0
    Format settings, CABAC : No
    Format settings, ReFrames : 2 frames
    Codec ID : avc1
    Codec ID/Info : Advanced Video Coding
    Duration : 1h 40mn
    Bit rate : 1 800 Kbps
    Maximum bit rate : 6 952 Kbps
    Width : 640 pixels
    Height : 480 pixels
    Display aspect ratio : 16:9
    Frame rate mode : Constant
    Frame rate : 23.976 fps
    Color space : YUV
    Chroma subsampling : 4:2:0
    Bit depth : 8 bits
    Scan type : Progressive
    Bits/(Pixel*Frame) : 0.244
    Stream size : 1.25 GiB (82%)
    Title : Hummingbird (2013) -Released for NNM-Club by gekka
    Writing library : x264 core 133 r2334 704 50 a7549b7 tMod 8-bit@4:2:0 X86_64
    Encoding settings : cabac=0 / ref=2 / deblock=1:-1:-1 / analyse=0x1:0x131 / me=tesa / subme=7 / psy=1 / fade_compensate=0.10 / psy_rd=0.90:0.15 / mixed_ref=1 / me_range=32 / chroma_me=1 / trellis=2 / 8x8dct=0 / cqm=0 / deadzone=21,11 / fast_pskip=0 / chroma_qp_offset=-3 / threads=12 / lookahead_threads=2 / sliced_threads=0 / nr=0 / decimate=0 / interlaced=0 / bluray_compat=0 / constrained_intra=0 / fgo=5 / bframes=0 / weightp=0 / keyint=250 / keyint_min=23 / scenecut=40 / intra_refresh=0 / rc_lookahead=120 / rc=2pass / mbtree=1 / bitrate=1800 / ratetol=1.0 / qcomp=0.70 / qpmin=0 / qpmax=69 / qpstep=4 / cplxblur=20.0 / qblur=0.5 / vbv_maxrate=5000 / vbv_bufsize=5000 / nal_hrd=none / ip_ratio=1.30 / aq=4:0.90 / aq-sensitivity=10.00 / aq-factor=1.00:1.00:1.00 / aq2=0 / aq3=0
    Language : English
    Encoded date : UTC 2013-08-31 11:11:07
    Tagged date : UTC 2013-08-31 11:11:36
    Matrix coefficients : BT.709

    Audio #1
    ID : 2
    Format : AAC
    Format/Info : Advanced Audio Codec
    Format profile : LC
    Codec ID : 40
    Duration : 1h 40mn
    Bit rate mode : Variable
    Bit rate : 192 Kbps
    Maximum bit rate : 229 Kbps
    Channel(s) : 2 channels
    Channel positions : Front: L R
    Sampling rate : 48.0 KHz
    Compression mode : Lossy
    Stream size : 139 MiB (9%)
    Title : Russian DUB
    Language : Russian
    Encoded date : UTC 2013-08-31 11:05:18
    Tagged date : UTC 2013-08-31 11:11:36

    Audio #2
    ID : 3
    Format : AAC
    Format/Info : Advanced Audio Codec
    Format profile : LC
    Codec ID : 40
    Duration : 1h 40mn
    Bit rate mode : Variable
    Bit rate : 192 Kbps
    Maximum bit rate : 230 Kbps
    Channel(s) : 2 channels
    Channel positions : Front: L R
    Sampling rate : 48.0 KHz
    Compression mode : Lossy
    Stream size : 138 MiB (9%)
    Title : English
    Language : English
    Encoded date : UTC 2013-08-31 11:09:14
    Tagged date : UTC 2013-08-31 11:11:36

    Menu
    ID : 4
    Codec ID : text
    Duration : 1h 40mn
    Encoded date : UTC 2013-08-31 11:11:54
    Tagged date : UTC 2013-08-31 11:11:54
    Bit rate mode : CBR
    iTunes Meta Tags

    Sort Name: Hummingbird
    XID: Apple:vendor_id:2013-607288
    Content ID: 607288
    Copyright: © Lionsgate, IM Global, Shoebox Films
    ScreenWriters: Стивен Найт
    Producers: Гай Хили, Пол Уэбстер, Стюарт Форд
    Director: Steven Knight
    Cast: Джейсон Стэйтем, Агата Бузек, Бенедикт Вонг, Вики МакКлюр, Гер Райан, Юссуф Керкур, Энтони Моррис, Виктория Бьюик, Кристиан Брассингтон, Дэниэл Уэбб
    Rating: R
    Long Deion: Бывший спецназовец Джоуи Джонс пытается начать новую жизнь. Он соглашается работать на азиатскую мафию. Но проникая все глубже в криминальный мир родного города, он понимает, что не может спокойно смотреть на творящееся в нем беззаконие. Когда от рук бандитов погибает его возлюбленная Изабель, Джоуи решает восстановить справедливость. Он начинает расследование, которое ведет его на самый верх преступного синдиката.
    Deion: Бывший спецназовец Джоуи Джонс пытается начать новую жизнь. Он соглашается работать на азиатскую мафию. Но проникая все глубже в криминальный мир родного города, он понимает, что не может спокойно смотреть на творящееся в нем беззаконие.
    Release Date: 2013-06-28T08:00:00Z
    Genre: Action
    Artist: Стивен Найт
    Name: Эффект колибри
    Comments: Месть не дает облегчения
    x264 Log

    x264 info: frame I:1889 Avg QP:15.87 size: 31088
    x264 info: frame P:142033 Avg QP:17.71 size: 9055
    x264 info: mb I I16..4: 26.9% 0.0% 73.1%
    x264 info: mb P I16..4: 0.5% 0.0% 1.1% P16..4: 44.9% 21.7% 16.1% 1.5% 0.9% skip:13.1%
    x264 info: coded y,uvDC,uvAC intra: 68.5% 70.9% 49.2% inter: 36.5% 32.2% 18.4%
    x264 info: i16 v,h,dc,p: 47% 11% 5% 36%
    x264 info: i4 v,h,dc,ddl,ddr,vr,hd,vl,hu: 33% 16% 11% 5% 8% 9% 6% 7% 4%
    x264 info: i8c dc,h,v,p: 48% 14% 29% 9%
    x264 info: ref P L0: 75.3% 24.7%
    x264 info: kb/s:1792.2
    Скриншоты для ознакомления




    Залил: gekka
    Размер скачиваемого торрента: 1.53 GB (1642244595 Bytes)

    Эффект колибри / Hummingbird (2013) BDRip-AVC | iPhone | D скачать через торрент бесплатно
    загрузка...
    Рейтинг →
     (голосов: 1, оценка 4/5, голосовать можно 1 раз )

    Другие торренты по теме:

  • Эффект колибри / Hummingbird (2013) HD 1080p | Трейлер
  • Эффект колибри / Hummingbird (2013) WEB-DL 720p от Unionpeer | D | iTunes Russia
  • Эффект колибри / Hummingbird (2013) BDRip 720p от leonardo 59 Scarabey | iTunes Russia
  • Эффект колибри / Hummingbird (2013) BDRip-AVC от leonardo 59 Scarabey | iTunes Russia
  • Эффект колибри / Hummingbird (2013) HDRip от Scarabey | Лицензия
  • Эффект колибри / Hummingbird (2013) BDRip-AVC от ExKinoRay | Лицензия
  • Эффект колибри / Hummingbird (2013) BDRip 720p | Лицензия
  • Эффект колибри / Hummingbird (2013) BDRemux 1080p | D | POR Transfer | Лицензия


    • Комментарии (0):

      Информация

      Информация

        Посетители, находящиеся в группе Гости, не могут оставлять комментарии в данной новости.

        ↓ Меню



        ↓ Опрос

        А Вы добавили сайт в закладки?
        Да
        Не


        Top 10 за месяц (Фильмы)