.
Авторизация | Регистрация
Хочешь лучшие торренты? Добавь свой email!
Добавить
» » 30 потрясений / 30 Rock (2012) HDTVRip скачать торрент бесплатно




    30 потрясений / 30 Rock (2012) HDTVRip скачать торрент бесплатно

    Опубликовал: Админ | Дата: 27-02-2015, 11:10 | Просмотров: 341

    30 Потрясений / Студия 30 / 30 Rock

    Создали в: 2012
    Снималось в: США
    Категория жанра: Комедия
    Время просмотра: 00:21:37
    Перевод текста: Любительский одноголосый закадровый Ч.Б.
    Субтитры: Отсутствуют

    Главный режиссёр: Дон Скардино

    Актеры: Тина Фэй, Алек Болдуин, Трэйси Морган, Джейн Краковски, Джек МакБрайер, Джудо Фридлэндер, Скотт Эдсит и другие

    Сюжет: Финальный сезон любимого сериала истории о тяжелых буднях создателей шоу TGS. Лиз Лемон, Джек Донеги, Трейси Джордан, Кенет Перселл и коллеги борются с трудностями жизни и нападками нелегкой судьбы, выпавшей на их долю.

    Доп. информация: Озвучка осуществлена по субтитрам с Нотабеноида. Авторы: redsRO, ryuryu, stamara6, morenax, sheypa, Igor_Russian, Francilization.

    P.S.Так как сцена во время финальных титров первой серии не несет в себе сюжетной нагрузки, но содержит ЗАШКАЛИВАЮЩЕЕ количество игры слов на английском языке, было принято решение не озвучивать сцену, дабы не коверкать ее нелепыми русскими аналогами. На последние несколько секунд серии - субтитры.В субтитрах к сериям поясняются некоторые шутки. Рекомендуется их скачивать.МОНТАЖ И СВЕДЕНИЕ ЗВУКА:MeltyBloodСэмпл: http://multi-up.com/914380
    Качество фильма: HDTVRip
    Тип видео: AVI
    Информация о видео кодек: XviD
    Информация о звуке кодек: AC3
    Информация о видео: XviD, 624x352, 23.976 fps, 946 kbps avg 0.18 bit/pixel
    Информация о звуке: AC3 Dolby Digital, 48 kHz, 2/0 (L,R) ch, 192 kbps



    Внимание! Раздача ведётся путём добавления новых серий!

    Внимание! Раздача ведётся путём добавления новых серий; при каждом добавлении создаётся новый торрент. Чтобы начать докачку новой серии, пользователям необходимо сделать следующее:
    (1) остановить скачивание,
    (2) удалить старый торрент у себя из клиента (старые серии удалять не надо),
    (3) скачать новый торрент и запустить его у себя в клиенте вместо старого, при этом указать клиенту путь в старую папку куда и должно происходить скачивание новых серий.
    Ваш клиент при этом должен произвести хеширование (проверку) старой папки (если не производит сам - помогите ему сделать это), и будет докачивать только те серии которых у вас ещё нет. Старые серии при этом не удаляются, а продолжают раздаваться!
    Eсли вы уже удалили старые серии, то предотвратить повторную закачку старых серий можно, отжав галочку в соответствующих местах при запуске нового торрента.
    MI

    Общее
    Формат : AVI
    Формат/Информация : Audio Video Interleave
    Размер файла : 180 Мбайт
    Продолжительность : 21 м.
    Общий поток : 1148 Кбит/сек
    Программа кодирования : VirtualDubMod 1.5.10.2 (build 2540/release)
    Библиотека кодирования : VirtualDubMod build 2540/release

    Видео
    Идентификатор : 0
    Формат : MPEG-4 Visual
    Профиль формата : Advanced Simple@L5
    Параметр BVOP формата : 2
    Параметр QPel формата : Нет
    Параметр GMC формата : Без точки перехода
    Параметр матрицы формата : Default (H.263)
    Идентификатор кодека : XVID
    Идентификатор кодека/Подсказка : XviD
    Продолжительность : 21 м.
    Битрейт : 946 Кбит/сек
    Ширина : 624 пикселя
    Высота : 352 пикселя
    Соотношение сторон : 16:9
    Соотношение сторон в оригинале : 16:9
    Частота кадров : 23,976 кадра/сек
    Цветовое пространство : YUV
    Субдискретизация насыщенности : 4:2:0
    Битовая глубина : 8 бит
    Тип развёртки : Прогрессивная
    Метод сжатия : С потерями
    Бит/(Пиксели*Кадры) : 0.180
    Размер потока : 149 Мбайт (82%)
    Библиотека кодирования : XviD 1.2.1 (UTC 2008-12-04)

    Аудио
    Идентификатор : 1
    Формат : AC-3
    Формат/Информация : Audio Coding 3
    Расширение режима : CM (complete main)
    Параметр Endianness формата : Big
    Идентификатор кодека : 2000
    Продолжительность : 21 м.
    Вид битрейта : Постоянный
    Битрейт : 192 Кбит/сек
    Каналы : 2 канала
    Расположение каналов : Front: L R
    Частота : 48,0 КГц
    Битовая глубина : 16 бит
    Метод сжатия : С потерями
    Размер потока : 30,2 Мбайт (17%)
    Выравнивание : Разделение по промежуткам
    Продолжительность промежутка : 42 мс. (1,00 видеокадр)
    Время предзагрузки промежутка : 500 мс.
    Скриншоты для ознакомления



    Размер скачиваемого торрента: 1.05 GB (1130998064 Bytes)

    30 потрясений / 30 Rock (2012) HDTVRip торрент скачать бесплатно
    загрузка...
    Рейтинг →
     (голосов: 1, оценка 5/5, голосовать можно 1 раз )

    Другие торренты по теме:

  • 30 ночей паранормального явления с одержимой девушкой с татуировкой дракона / 30 Nights of Paranormal Activity with the Devil Inside the Girl with the Dragon Tattoo (2012) WEB-DLRip | L2
  • Лучшие зарубежные клипы. ТОП-30 / Simply the best. TOP-30 (2011-2013) HDRip 720p
  • Из 13 в 30 / 13 Going On 30 (2004) HDRip от Scarabey | D
  • 30 ночей паранормального явления с одержимой девушкой с татуировкой дракона / 30 Nights of Paranormal Activity (2012) BDRip 1080p скачать через торрент бесплатно
  • 30 дней ночи / 30 Days of Night (2007) HDRip от Scarabey | D скачать через торрент бесплатно
  • Из 13 в 30 / 13 Going on 30 (2004) BDRip-AVC от Rulya74
  • Из 13 в 30 / 13 Going On 30 (2004) BDRemux 1080p от ExKinoRay | D, Р
  • 30 дней ночи / 30 Days of Night (2007) HDRip-AVC | D скачать через торрент бесплатно


    • Комментарии (0):

      Информация

      Информация

        Посетители, находящиеся в группе Гости, не могут оставлять комментарии в данной новости.

        ↓ Меню



        ↓ Опрос

        А Вы добавили сайт в закладки?
        Да
        Не


        Top 10 за месяц (Фильмы)