.
Авторизация | Регистрация
Хочешь лучшие торренты? Добавь свой email!
Добавить
» » Обитель зла / Resident Evil (2002) BDRip-AVC | iPhone | D,A скачать торрент бесплатно




    Обитель зла / Resident Evil (2002) BDRip-AVC | iPhone | D,A скачать торрент бесплатно

    Опубликовал: Админ | Дата: 27-02-2015, 11:10 | Просмотров: 285



    Обитель зла / Resident Evil (2002) BDRip-AVC | iPhone | D,A

    Русское название: Обитель зла
    Русское название в мировом прокате: Resident Evil
    Создали в: 2002
    Категория жанра: ужасы, фантастика, боевик
    Главный режиссер: Пол У. С. Андерсон
    Актеры: Милла Йовович, Мишель Родригес, Эрик Мэбиас, Джеймс Пьюрфой, Мартин Крюз, Колин Сэлмон, Райан МакКласки, Оскар Пирс, Индра Ове, Анна Болт

    Сюжет фильма:
    В гигантской подземной лаборатории на волю вырывается опаснейший вирус, мгновенно превращая своих жертв в прожорливых зомби. Достаточно одного их укуса или царапины страшных когтей, чтобы человек стал обезумевшим пожирателем живой плоти.Военные посылают в секретный комплекс, кишащий ужасными мутировавшими животными и голодными монстрами, группу спецназа, к которой присоединяются очаровательная Элис и отважный полицейский Мэтт. У них есть только три часа, чтобы уничтожить вирус до того, как он распространится по всей Земле...


    Снималось в: Германия, США
    Киностудия: Constantin Film Produktion, Davis-Films, Impact Pictures
    Время просмотра: 01:40:31
    Перевод текста: Русский дублированный, авторский (Goblin)

    Файл
    Кодек для видео: H.264
    Качество фильма: BDRip-AVC 480p iPhone
    Информация о видео: 640x460@851x460 at 23.976 fps, AVC at 1800 kbps
    Информация о звуке:
    1: 48 kHz, AAC 2.0, 192 kbps - Русский дублированный
    2: 48 kHz, AAC 2.0, 192 kbps - Русский авторский (Goblin)
    3: 48 kHz, AAC 2.0, 192 kbps - Английский
    Субтитры: Английские

    Media Info

    General
    Complete name : D:x264480outResiden Evil.2002 (SD).m4v
    Format : MPEG-4
    Codec ID : M4V
    File size : 1.70 GiB
    Duration : 1h 40mn
    Overall bit rate mode : Variable
    Overall bit rate : 2 414 Kbps
    Movie name : Обитель зла
    Performer : Пол У. С. Андерсон
    Genre : Sci-Fi Fantasy
    Recorded date : UTC 2002-07-30 07:00:00
    Encoded date : UTC 2013-08-25 15:36:27
    Tagged date : UTC 2013-08-25 15:37:56
    Copyright : © Constantin Film Produktion, Davis-Films, Impact Pictures
    Cover : Yes
    Comment : From the Director of Mortal Combat and Event Horizon.
    iTunEXTC : mpaa|R|400|

    sonm : Resident Evil
    desc : В гигантской подземной лаборатории на волю вырывается опаснейший вирус, мгновенно превращая своих жертв в прожорливых зомби. Достаточно одного их укуса или царапины страшных когтей, чтобы человек стал обезумевшим пожирателем живой плоти.
    ldes : В гигантской подземной лаборатории на волю вырывается опаснейший вирус, мгновенно превращая своих жертв в прожорливых зомби. Достаточно одного их укуса или царапины страшных когтей, чтобы человек стал обезумевшим пожирателем живой плоти. Военные посылают в секретный комплекс, кишащий ужасными мутировавшими животными и голодными монстрами, группу спецназа, к которой присоединяются очаровательная Элис и отважный полицейский Мэтт. У них есть только три часа, чтобы уничтожить вирус до того, как он распространится по всей Земле…
    hdvd : 0
    stik : 9
    cnID : 287663769
    xid : Apple:vendor_id:2002-801

    Video
    ID : 1
    Format : AVC
    Format/Info : Advanced Video Codec
    Format profile : Baseline@L3.0
    Format settings, CABAC : No
    Format settings, ReFrames : 2 frames
    Codec ID : avc1
    Codec ID/Info : Advanced Video Coding
    Duration : 1h 40mn
    Bit rate : 1 800 Kbps
    Maximum bit rate : 7 965 Kbps
    Width : 640 pixels
    Height : 460 pixels
    Display aspect ratio : 1.85:1
    Frame rate mode : Constant
    Frame rate : 23.976 fps
    Color space : YUV
    Chroma subsampling : 4:2:0
    Bit depth : 8 bits
    Scan type : Progressive
    Bits/(Pixel*Frame) : 0.255
    Stream size : 1.26 GiB (74%)
    Title : Residen Evil (2002)
    Writing library : x264 core 133 r2334 704 50 a7549b7 tMod 8-bit@4:2:0 X86_64
    Encoding settings : cabac=0 / ref=2 / deblock=1:-1:-1 / analyse=0x1:0x131 / me=umh / subme=7 / psy=1 / fade_compensate=1.00 / psy_rd=0.90:0.10 / mixed_ref=1 / me_range=32 / chroma_me=1 / trellis=2 / 8x8dct=0 / cqm=0 / deadzone=21,11 / fast_pskip=0 / chroma_qp_offset=-3 / threads=18 / lookahead_threads=3 / sliced_threads=0 / nr=0 / decimate=0 / interlaced=0 / bluray_compat=0 / constrained_intra=0 / fgo=0 / bframes=0 / weightp=0 / keyint=250 / keyint_min=23 / scenecut=40 / intra_refresh=0 / rc_lookahead=60 / rc=2pass / mbtree=1 / bitrate=1800 / ratetol=1.0 / qcomp=0.70 / qpmin=0 / qpmax=69 / qpstep=4 / cplxblur=20.0 / qblur=0.5 / vbv_maxrate=5000 / vbv_bufsize=5000 / nal_hrd=none / ip_ratio=1.35 / aq=1:0.00 / aq-sensitivity=10.00 / aq-factor=1.00:1.00:1.00 / aq2=0 / aq3=0
    Language : English
    Encoded date : UTC 2013-08-25 15:36:27
    Tagged date : UTC 2013-08-25 15:36:43
    Matrix coefficients : BT.709

    Audio #1
    ID : 2
    Format : AAC
    Format/Info : Advanced Audio Codec
    Format profile : LC
    Codec ID : 40
    Duration : 1h 40mn
    Bit rate mode : Variable
    Bit rate : 205 Kbps
    Maximum bit rate : 234 Kbps
    Channel(s) : 2 channels
    Channel positions : Front: L R
    Sampling rate : 48.0 KHz
    Compression mode : Lossy
    Stream size : 147 MiB (8%)
    Title : AAC Russian DUB
    Language : Russian
    Encoded date : UTC 2013-08-25 15:36:35
    Tagged date : UTC 2013-08-25 15:36:43

    Audio #2
    ID : 3
    Format : AAC
    Format/Info : Advanced Audio Codec
    Format profile : LC
    Codec ID : 40
    Duration : 1h 40mn
    Bit rate mode : Variable
    Bit rate : 200 Kbps
    Maximum bit rate : 231 Kbps
    Channel(s) : 2 channels
    Channel positions : Front: L R
    Sampling rate : 48.0 KHz
    Compression mode : Lossy
    Stream size : 144 MiB (8%)
    Title : AAC Russian VO (Goblin)
    Language : Russian
    Encoded date : UTC 2013-08-25 15:36:37
    Tagged date : UTC 2013-08-25 15:36:43

    Audio #3
    ID : 4
    Format : AAC
    Format/Info : Advanced Audio Codec
    Format profile : LC
    Codec ID : 40
    Duration : 1h 40mn
    Bit rate mode : Variable
    Bit rate : 203 Kbps
    Maximum bit rate : 231 Kbps
    Channel(s) : 2 channels
    Channel positions : Front: L R
    Sampling rate : 48.0 KHz
    Compression mode : Lossy
    Stream size : 146 MiB (8%)
    Title : AAC English
    Language : English
    Encoded date : UTC 2013-08-25 15:36:40
    Tagged date : UTC 2013-08-25 15:36:43

    Text
    ID : 5
    Format : Timed Text
    Muxing mode : sbtl
    Codec ID : tx3g
    Duration : 1h 31mn
    Bit rate mode : Variable
    Bit rate : 33 bps
    Stream size : 22.3 KiB (0%)
    Title : Subtitile English
    Language : English
    Encoded date : UTC 2013-08-25 15:36:43
    Tagged date : UTC 2013-08-25 15:36:43

    Menu
    ID : 6
    Codec ID : text
    Duration : 1h 40mn
    Encoded date : UTC 2013-08-25 15:37:04
    Tagged date : UTC 2013-08-25 15:37:04
    Bit rate mode : CBR
    iTunes Meta Tags

    Sort Name: Resident Evil
    XID: Apple:vendor_id:2002-801
    Content ID: 287663769
    Copyright: © Constantin Film Produktion, Davis-Films, Impact Pictures
    ScreenWriters: Пол У. С. Андерсон
    Producers: Пол У. С. Андерсон, Джереми Болт, Бернд Айхингер
    Director: Paul W.S. Anderson
    Cast: Милла Йовович, Мишель Родригес, Эрик Мэбиас, Джеймс Пьюрфой, Мартин Крюз, Колин Сэлмон, Райан МакКласки, Оскар Пирс, Индра Ове, Анна Болт
    Rating: R
    Long Deion: В гигантской подземной лаборатории на волю вырывается опаснейший вирус, мгновенно превращая своих жертв в прожорливых зомби. Достаточно одного их укуса или царапины страшных когтей, чтобы человек стал обезумевшим пожирателем живой плоти. Военные посылают в секретный комплекс, кишащий ужасными мутировавшими животными и голодными монстрами, группу спецназа, к которой присоединяются очаровательная Элис и отважный полицейский Мэтт. У них есть только три часа, чтобы уничтожить вирус до того, как он распространится по всей Земле…
    Deion: В гигантской подземной лаборатории на волю вырывается опаснейший вирус, мгновенно превращая своих жертв в прожорливых зомби. Достаточно одного их укуса или царапины страшных когтей, чтобы человек стал обезумевшим пожирателем живой плоти.
    Release Date: 2002-07-30T07:00:00Z
    Genre: Sci-Fi Fantasy
    Artist: Пол У. С. Андерсон
    Name: Обитель зла
    Comments: From the Director of Mortal Combat and Event Horizon.
    x264 Log

    x264 info: frame I:4734 Avg QP:18.66 size: 17966
    x264 info: frame P:139866 Avg QP:18.99 size: 9061
    x264 info: mb I I16..4: 51.9% 0.0% 48.1%
    x264 info: mb P I16..4: 4.5% 0.0% 3.1% P16..4: 51.7% 15.6% 6.9% 1.1% 0.4% skip:16.6%
    x264 info: coded y,uvDC,uvAC intra: 41.8% 69.7% 34.4% inter: 33.1% 43.0% 17.8%
    x264 info: i16 v,h,dc,p: 51% 14% 9% 26%
    x264 info: i4 v,h,dc,ddl,ddr,vr,hd,vl,hu: 31% 13% 15% 6% 8% 10% 6% 8% 4%
    x264 info: i8c dc,h,v,p: 56% 12% 24% 8%
    x264 info: ref P L0: 74.5% 25.5%
    x264 info: kb/s:1793.90
    Скриншоты для ознакомления




    Залил: gekka
    Размер скачиваемого торрента: 1.70 GB (1820046741 Bytes)

    Обитель зла / Resident Evil (2002) BDRip-AVC | iPhone | D,A торрент скачать бесплатно
    загрузка...
    Рейтинг →
     (голосов: 1, оценка 4/5, голосовать можно 1 раз )

    Другие торренты по теме:

  • Обитель зла Проклятие / Biohazard Damnation / Resident Evil Damnation (2012) BDRip 1080p от R.G. GoldenShara | Лицензия
  • Обитель зла: Вырождение / Resident Evil: Degeneration (2008) DVD5
  • Обитель Зла: Проклятие / Resident Evil: Damnation (2012) BDRemux 1080p
  • Обитель зла: Возмездие / Resident Evil: Retribution (2012) DVD9 от NovaLan
  • Обитель зла 2: Апокалипсис / Resident Evil: Apocalypse (2004) BDRip-AVC от 0ptimus | D, P2, A
  • OST - Обитель зла / Resident Evil 1-5 (2002-2012) MP3
  • Обитель Зла: Проклятие 3Д / Resident Evil: Damnation 3D (2012) BDRip 1080p | 3D-Video
  • Обитель зла 4: Жизнь после смерти / Resident Evil: Afterlife (2010) BDRip 1080p от FREEISLAND | D


    • Комментарии (0):

      Информация

      Информация

        Посетители, находящиеся в группе Гости, не могут оставлять комментарии в данной новости.

        ↓ Меню



        ↓ Опрос

        А Вы добавили сайт в закладки?
        Да
        Не


        Top 10 за месяц (Фильмы)