.
Авторизация | Регистрация
Хочешь лучшие торренты? Добавь свой email!
Добавить
» » Обитель зла 4: Жизнь после смерти 3D / Resident Evil: Afterlife (2010) BDRip-AVC | iPhone | D скачать торрент бесплатно




    Обитель зла 4: Жизнь после смерти 3D / Resident Evil: Afterlife (2010) BDRip-AVC | iPhone | D скачать торрент бесплатно

    Опубликовал: Админ | Дата: 27-02-2015, 11:10 | Просмотров: 308



    Обитель зла 4: Жизнь после смерти 3D / Resident Evil: Afterlife (2010) BDRip-AVC | iPhone | D

    Русское название: Обитель зла 4: Жизнь после смерти 3D
    Русское название в мировом прокате: Resident Evil: Afterlife
    Создали в: 2010
    Категория жанра: ужасы, фантастика, боевик, приключения
    Главный режиссер: Пол У. С. Андерсон
    Актеры: Милла Йовович, Эли Лартер, Ким Коутс, Шон Робертс, Серджо Перис-Менчета, Спенсер Лок, Борис Коджо, Вентворт Миллер, Сиенна Гиллори, Кейси Барнфилд

    Сюжет фильма:
    Элис продолжает свой путь в мире, поражённом вирусной инфекцией, превращающей людей в нежить. Героиня ищет оставшихся в живых, чтобы вывести их в безопасное место. Её смертельная битва с корпорацией Амбрелла выходит на новый уровень...


    Снималось в: Германия, Франция, США, Канада
    Киностудия: Constantin Film Produktion, Davis-Films, Impact Pictures
    Время просмотра: 01:36:52
    Перевод текста: Русский дублированный, Украинский дублированный

    Файл
    Кодек для видео: H.264
    Качество фильма: BDRip-AVC 480p iPhone
    Информация о видео: 640x354@851x354 at 23.976 fps, AVC at 1800 kbps
    Информация о звуке:
    1: 48 kHz, AAC 2.0, 192 kbps - Русский дублированный
    2: 48 kHz, AAC 2.0, 192 kbps - Украинский дублированный
    3: 48 kHz, AAC 2.0, 192 kbps - Английский
    Субтитры: Английские

    Media Info

    General
    Complete name : C:CREATE480outResident Evil IV - Afterlife.2010 (SD).m4v
    Format : MPEG-4
    Codec ID : M4V
    File size : 1.63 GiB
    Duration : 1h 36mn
    Overall bit rate mode : Variable
    Overall bit rate : 2 402 Kbps
    Movie name : Обитель зла 4: Жизнь после смерти 3D
    Performer : Пол У. С. Андерсон
    Genre : Action Adventure
    Recorded date : UTC 2010-09-10 07:00:00
    Encoded date : UTC 2013-08-28 15:43:07
    Tagged date : UTC 2013-08-28 15:46:27
    Copyright : © Constantin Film Produktion, Davis-Films, Impact Pictures
    Cover : Yes
    Comment : Испытайте новое измерение зла
    iTunEXTC : mpaa|R|400|

    sonm : Resident Evil: Afterlife
    desc : Элис продолжает свой путь в мире, поражённом вирусной инфекцией, превращающей людей в нежить. Героиня ищет оставшихся в живых, чтобы вывести их в безопасное место. Её смертельная битва с корпорацией Амбрелла выходит на новый уровень…
    ldes : Элис продолжает свой путь в мире, поражённом вирусной инфекцией, превращающей людей в нежить. Героиня ищет оставшихся в живых, чтобы вывести их в безопасное место. Её смертельная битва с корпорацией Амбрелла выходит на новый уровень…
    hdvd : 0
    stik : 9
    cnID : 400602610
    xid : Apple:vendor_id:2010-409208

    Video
    ID : 1
    Format : AVC
    Format/Info : Advanced Video Codec
    Format profile : Baseline@L3.0
    Format settings, CABAC : No
    Format settings, ReFrames : 2 frames
    Codec ID : avc1
    Codec ID/Info : Advanced Video Coding
    Duration : 1h 36mn
    Bit rate : 1 800 Kbps
    Maximum bit rate : 7 644 Kbps
    Width : 640 pixels
    Height : 354 pixels
    Display aspect ratio : 2.40:1
    Frame rate mode : Constant
    Frame rate : 23.976 fps
    Color space : YUV
    Chroma subsampling : 4:2:0
    Bit depth : 8 bits
    Scan type : Progressive
    Bits/(Pixel*Frame) : 0.331
    Stream size : 1.21 GiB (75%)
    Title : Resident Evil IV - Afterlife (2010)
    Writing library : x264 core 133 r2334 704 50 a7549b7 tMod 8-bit@4:2:0 X86_64
    Encoding settings : cabac=0 / ref=2 / deblock=1:-1:-1 / analyse=0x1:0x131 / me=umh / subme=7 / psy=1 / fade_compensate=1.00 / psy_rd=0.90:0.10 / mixed_ref=1 / me_range=32 / chroma_me=1 / trellis=2 / 8x8dct=0 / cqm=0 / deadzone=21,11 / fast_pskip=0 / chroma_qp_offset=-3 / threads=18 / lookahead_threads=2 / sliced_threads=0 / nr=0 / decimate=0 / interlaced=0 / bluray_compat=0 / constrained_intra=0 / fgo=0 / bframes=0 / weightp=0 / keyint=250 / keyint_min=23 / scenecut=40 / intra_refresh=0 / rc_lookahead=60 / rc=2pass / mbtree=1 / bitrate=1800 / ratetol=1.0 / qcomp=0.70 / qpmin=0 / qpmax=69 / qpstep=4 / cplxblur=20.0 / qblur=0.5 / vbv_maxrate=5000 / vbv_bufsize=5000 / nal_hrd=none / ip_ratio=1.35 / aq=1:0.00 / aq-sensitivity=10.00 / aq-factor=1.00:1.00:1.00 / aq2=0 / aq3=0
    Language : English
    Encoded date : UTC 2013-08-28 15:43:07
    Tagged date : UTC 2013-08-28 15:43:51
    Matrix coefficients : BT.709

    Audio #1
    ID : 2
    Format : AAC
    Format/Info : Advanced Audio Codec
    Format profile : LC
    Codec ID : 40
    Duration : 1h 36mn
    Bit rate mode : Variable
    Bit rate : 201 Kbps
    Maximum bit rate : 246 Kbps
    Channel(s) : 2 channels
    Channel positions : Front: L R
    Sampling rate : 48.0 KHz
    Compression mode : Lossy
    Stream size : 139 MiB (8%)
    Title : AAC Russian DUB
    Language : Russian
    Encoded date : UTC 2013-08-28 15:43:35
    Tagged date : UTC 2013-08-28 15:43:51

    Audio #2
    ID : 3
    Format : AAC
    Format/Info : Advanced Audio Codec
    Format profile : LC
    Codec ID : 40
    Duration : 1h 36mn
    Bit rate mode : Variable
    Bit rate : 202 Kbps
    Maximum bit rate : 236 Kbps
    Channel(s) : 2 channels
    Channel positions : Front: L R
    Sampling rate : 48.0 KHz
    Compression mode : Lossy
    Stream size : 140 MiB (8%)
    Title : AAC Ukrainian DUB
    Language : Ukrainian
    Encoded date : UTC 2013-08-28 15:43:40
    Tagged date : UTC 2013-08-28 15:43:51

    Audio #3
    ID : 4
    Format : AAC
    Format/Info : Advanced Audio Codec
    Format profile : LC
    Codec ID : 40
    Duration : 1h 36mn
    Bit rate mode : Variable
    Bit rate : 192 Kbps
    Maximum bit rate : 236 Kbps
    Channel(s) : 2 channels
    Channel positions : Front: L R
    Sampling rate : 48.0 KHz
    Compression mode : Lossy
    Stream size : 135 MiB (8%)
    Title : AAC English
    Language : English
    Encoded date : UTC 2013-08-28 15:43:46
    Tagged date : UTC 2013-08-28 15:43:51

    Text
    ID : 5
    Format : Timed Text
    Muxing mode : sbtl
    Codec ID : tx3g
    Duration : 1h 36mn
    Bit rate mode : Variable
    Bit rate : 33 bps
    Stream size : 23.3 KiB (0%)
    Title : Subtitle English
    Language : English
    Encoded date : UTC 2013-08-28 15:43:51
    Tagged date : UTC 2013-08-28 15:43:51

    Menu
    ID : 6
    Codec ID : text
    Duration : 1h 36mn
    Encoded date : UTC 2013-08-28 15:45:06
    Tagged date : UTC 2013-08-28 15:45:06
    Bit rate mode : VBR
    iTunes Meta Tags

    Sort Name: Resident Evil: Afterlife
    iTunes Account Type: 255
    XID: Apple:vendor_id:2010-409208
    contentID: 400602610
    Copyright: © Constantin Film Produktion, Davis-Films, Impact Pictures
    Screenwriters: Пол У. С. Андерсон
    Producers: Пол У. С. Андерсон, Джереми Болт, Дон Кармоди
    Director: Paul W.S. Anderson
    Cast: Милла Йовович, Эли Лартер, Ким Коутс, Шон Робертс, Серджо Перис-Менчета, Спенсер Лок, Борис Коджо, Вентворт Миллер, Сиенна Гиллори, Кейси Барнфилд
    Studio: © Constantin Film Produktion, Davis-Films, Impact Pictures
    Rating: 5
    Long Deion: Элис продолжает свой путь в мире, поражённом вирусной инфекцией, превращающей людей в нежить. Героиня ищет оставшихся в живых, чтобы вывести их в безопасное место. Её смертельная битва с корпорацией Амбрелла выходит на новый уровень…
    Deion: Элис продолжает свой путь в мире, поражённом вирусной инфекцией, превращающей людей в нежить. Героиня ищет оставшихся в живых, чтобы вывести их в безопасное место. Её смертельная битва с корпорацией Амбрелла выходит на новый уровень…
    Release Date: 2010-09-10T07:00:00Z
    Genre: Action Adventure
    Comments: Испытайте новое измерение зла
    Artist: Пол У. С. Андерсон
    Name: Обитель зла 4: Жизнь после смерти 3D
    x264 Log

    x264 info: frame I:2825 Avg QP:19.28 size: 21569
    x264 info: frame P:136543 Avg QP:19.78 size: 9090
    x264 info: mb I I16..4: 46.6% 0.0% 53.4%
    x264 info: mb P I16..4: 3.0% 0.0% 3.1% P16..4: 46.4% 15.3% 7.8% 2.1% 0.8% skip:21.4%
    x264 info: coded y,uvDC,uvAC intra: 46.7% 62.2% 24.6% inter: 38.1% 33.2% 11.9%
    x264 info: i16 v,h,dc,p: 48% 19% 9% 24%
    x264 info: i4 v,h,dc,ddl,ddr,vr,hd,vl,hu: 39% 13% 12% 5% 6% 8% 5% 7% 4%
    x264 info: i8c dc,h,v,p: 59% 13% 23% 5%
    x264 info: ref P L0: 72.6% 27.4%
    x264 info: kb/s:1791.97
    Скриншоты для ознакомления




    Залил: gekka
    Размер скачиваемого торрента: 1.63 GB (1745648038 Bytes)

    Обитель зла 4: Жизнь после смерти 3D / Resident Evil: Afterlife (2010) BDRip-AVC | iPhone | D торрент скачать бесплатно
    загрузка...
    Рейтинг →
     (голосов: 1, оценка 5/5, голосовать можно 1 раз )

    Другие торренты по теме:

  • Обитель зла Проклятие / Biohazard Damnation / Resident Evil Damnation (2012) BDRip 1080p от R.G. GoldenShara | Лицензия
  • Обитель зла: Вырождение / Resident Evil: Degeneration (2008) DVD5
  • Обитель Зла: Проклятие / Resident Evil: Damnation (2012) BDRemux 1080p
  • Обитель зла: Возмездие / Resident Evil: Retribution (2012) DVD9 от NovaLan
  • Обитель зла 2: Апокалипсис / Resident Evil: Apocalypse (2004) BDRip-AVC от 0ptimus | D, P2, A
  • OST - Обитель зла / Resident Evil 1-5 (2002-2012) MP3
  • Обитель Зла: Проклятие 3Д / Resident Evil: Damnation 3D (2012) BDRip 1080p | 3D-Video
  • Обитель зла 4: Жизнь после смерти / Resident Evil: Afterlife (2010) BDRip 1080p от FREEISLAND | D


    • Комментарии (0):

      Информация

      Информация

        Посетители, находящиеся в группе Гости, не могут оставлять комментарии в данной новости.

        ↓ Меню



        ↓ Опрос

        А Вы добавили сайт в закладки?
        Да
        Не


        Top 10 за месяц (Фильмы)