.
Авторизация | Регистрация
Хочешь лучшие торренты? Добавь свой email!
Добавить
» » Гравитация / Gravity (2013) BDRip-AVC | iPhone | D | iTunes скачать через торрент бесплатно




    Гравитация / Gravity (2013) BDRip-AVC | iPhone | D | iTunes скачать через торрент бесплатно

    Опубликовал: Админ | Дата: 27-02-2015, 11:10 | Просмотров: 254




    Гравитация / Gravity (2013) BDRip-AVC | iPhone | D | iTunes

    Русское название: Гравитация
    Русское название в мировом прокате: Gravity
    Создали в: 2013
    Категория жанра: Фантастика, триллер, драма
    Главный режиссер: Альфонсо Куарон
    Актеры: Сандра Буллок, Джордж Клуни, Эд Харрис, Орто Игнатиуссен, Фалдут Шарма, Эми Уоррен, Башер Саваж, Дженис Ахерн

    Сюжет фильма:
    Доктор Райан Стоун, блестящий специалист в области медицинского инжиниринга, отправляется в свою первую космическую миссию под командованием ветерана астронавтики Мэтта Ковальски, для которого этот полет - последний перед отставкой. Но во время, казалось бы, рутинной работы за бортом случается катастрофа.
    Шаттл уничтожен, а Стоун и Ковальски остаются совершенно одни; они находятся в связке друг с другом, и все, что они могут, - это двигаться по орбите в абсолютно черном пространстве без всякой связи с Землей и какой-либо надежды на спасение..


    Снималось в: США, Великобритания
    Киностудия: © Warner Bros.
    Время просмотра: 01:30:56
    Перевод текста: Русский дублированный (iTunes)

    Файл
    Кодек для видео: H.264
    Качество фильма: BDRip-AVC 480p iPhone
    Информация о видео: 640x356 (2.40:1) at 23.976 fps, AVC at 1700 kbps
    Информация о звуке:
    1: 48 kHz, AAC 2.0, 180 kbps - Русский дублированный (iTunes)
    2: 48 kHz, AAC 2.0, 192 kbps - Английский
    Субтитры: Русские, Украинские, Английские

    iTunes Meta Tags

    Sort Name: Gravity
    XID: Apple:vendor_id:2013-468466
    contentID: 708338403
    Copyright: © 2013 Warner Bros. Entertainment Inc. All Rights Reserved.
    Screenwriters: Альфонсо Куарон, Хонас Куарон, Джордж Клуни
    Producers: Альфонсо Куарон, Дэвид Хейман, Кристофер ДеФариа
    Director: Alfonso Cuar?n
    Cast: Сандра Буллок, Джордж Клуни, Эд Харрис, Орто Игнатиуссен, Фалдут Шарма, Эми Уоррен, Башер Саваж
    Studio: Warner Bros
    Rating: 4
    Long Deion: Группа астронавтов коротает дни на космической станции. Однажды, когда капитан и его коллега выполняют задание в открытом космосе, обломки взорвавшегося спутника убивают весь экипаж.
    Deion: Группа астронавтов коротает дни на космической станции. Однажды, когда капитан и его коллега выполняют задание в открытом космосе, обломки взорвавшегося спутника убивают весь экипаж.
    Release Date: 2013-10-04T07:00:00Z
    Genre: Drama
    Comments: Не отпускай
    Artist: Альфонсо Куарон
    Name: Гравитация
    Media Info

    General
    Complete name : C:CREATE480outGravity.2013 (SD).m4v
    Format : MPEG-4
    Codec ID : M4V
    File size : 1.26 GiB
    Duration : 1h 30mn
    Overall bit rate mode : Variable
    Overall bit rate : 1 988 Kbps
    Movie name : Гравитация
    Performer : Альфонсо Куарон
    Genre : Drama
    Recorded date : UTC 2013-10-04 07:00:00
    Encoded date : UTC 2014-02-10 07:50:51
    Tagged date : UTC 2014-02-10 09:49:29
    Copyright : © 2013 Warner Bros. Entertainment Inc. All Rights Reserved.
    Cover : Yes
    Comment : Не отпускай
    sonm : Gravity
    desc : Группа астронавтов коротает дни на космической станции. Однажды, когда капитан и его коллега выполняют задание в открытом космосе, обломки взорвавшегося спутника убивают весь экипаж.
    ldes : Группа астронавтов коротает дни на космической станции. Однажды, когда капитан и его коллега выполняют задание в открытом космосе, обломки взорвавшегося спутника убивают весь экипаж.
    stik : 9
    rtng : 0
    cnID : 708338403
    xid : Apple:vendor_id:2013-468466
    iTunEXTC : mpaa|PG-13|300|

    Video #1
    ID : 1
    Format : AVC
    Format/Info : Advanced Video Codec
    Format profile : Baseline@L3.0
    Format settings, CABAC : No
    Format settings, ReFrames : 2 frames
    Codec ID : avc1
    Codec ID/Info : Advanced Video Coding
    Duration : 1h 30mn
    Bit rate : 1 600 Kbps
    Maximum bit rate : 5 856 Kbps
    Width : 640 pixels
    Height : 356 pixels
    Display aspect ratio : 2.40:1
    Frame rate mode : Constant
    Frame rate : 23.976 fps
    Color space : YUV
    Chroma subsampling : 4:2:0
    Bit depth : 8 bits
    Scan type : Progressive
    Bits/(Pixel*Frame) : 0.293
    Stream size : 1.01 GiB (80%)
    Title : Gravity _2013_
    Writing library : x264 core 140 r2377 40 929f149 tMod 8-bit@4:2:0 X86_64
    Encoding settings : cabac=0 / ref=2 / deblock=1:-2:-2 / analyse=0x1:0x131 / me=umh / subme=7 / psy=1 / fade_compensate=1.00 / psy_rd=1.05:0.15 / mixed_ref=1 / me_range=32 / chroma_me=1 / trellis=2 / 8x8dct=0 / cqm=0 / deadzone=21,11 / fast_pskip=0 / chroma_qp_offset=-3 / threads=12 / lookahead_threads=2 / sliced_threads=0 / nr=0 / decimate=0 / interlaced=0 / bluray_compat=0 / constrained_intra=0 / fgo=0 / bframes=0 / weightp=0 / keyint=250 / keyint_min=23 / scenecut=40 / intra_refresh=0 / rc_lookahead=120 / rc=2pass / mbtree=1 / bitrate=1600 / ratetol=1.0 / qcomp=0.60 / qpmin=0:0:0 / qpmax=69:69:69 / qpstep=4 / cplxblur=20.0 / qblur=0.5 / vbv_maxrate=5000 / vbv_bufsize=5000 / nal_hrd=none / filler=0 / ip_ratio=1.30 / aq=1:0.90 / aq-sensitivity=10.00 / aq-factor=1.00:1.00:1.00 / aq2=0 / aq3=1:0.50:0.50:0.50:0.50:0.50:0.50:0.50:0.50 / aq3-sensitivity=10.00 / aq3-factor=1.00:1.00:1.00:1.00:1.00:1.00 / aq3-boundary=205:56:9
    Language : English
    Encoded date : UTC 2014-02-10 07:50:51
    Tagged date : UTC 2014-02-10 07:51:48
    Matrix coefficients : BT.709

    Video #2
    ID : 10
    Format : JPEG
    Codec ID : jpeg
    Duration : 1h 30mn
    Bit rate mode : Variable
    Bit rate : 525 bps
    Width : 640 pixels
    Height : 267 pixels
    Display aspect ratio : 2.40:1
    Frame rate mode : Variable
    Frame rate : 0.002 fps
    Minimum frame rate : 0.001 fps
    Maximum frame rate : 0.002 fps
    Color space : YUV
    Chroma subsampling : 4:2:0
    Bit depth : 8 bits
    Compression mode : Lossy
    Bits/(Pixel*Frame) : 1.536
    Stream size : 320 KiB (0%)
    Language : English
    Encoded date : UTC 2014-02-10 09:49:26
    Tagged date : UTC 2014-02-10 09:49:26

    Audio #1
    ID : 2
    Format : AAC
    Format/Info : Advanced Audio Codec
    Format profile : LC
    Codec ID : 40
    Duration : 1h 30mn
    Bit rate mode : Variable
    Bit rate : 178 Kbps
    Maximum bit rate : 228 Kbps
    Channel(s) : 2 channels
    Channel positions : Front: L R
    Sampling rate : 48.0 KHz
    Compression mode : Lossy
    Stream size : 116 MiB (9%)
    Title : AAC DUB
    Language : Russian
    Encoded date : UTC 2014-02-10 07:40:11
    Tagged date : UTC 2014-02-10 07:51:48

    Audio #2
    ID : 4
    Format : AAC
    Format/Info : Advanced Audio Codec
    Format profile : LC
    Codec ID : 40
    Duration : 1h 30mn
    Bit rate mode : Variable
    Bit rate : 204 Kbps
    Maximum bit rate : 272 Kbps
    Channel(s) : 2 channels
    Channel positions : Front: L R
    Sampling rate : 48.0 KHz
    Compression mode : Lossy
    Stream size : 133 MiB (10%)
    Title : AAC Original
    Language : English
    Encoded date : UTC 2014-02-10 07:48:08
    Tagged date : UTC 2014-02-10 07:51:48

    Text #1
    ID : 6
    Format : Timed Text
    Muxing mode : sbtl
    Codec ID : tx3g
    Duration : 1h 24mn
    Bit rate mode : Variable
    Bit rate : 64 bps
    Stream size : 39.5 KiB (0%)
    Title : Subtitle Russian
    Language : Russian
    Encoded date : UTC 2014-02-10 07:51:48
    Tagged date : UTC 2014-02-10 07:51:48

    Text #2
    ID : 7
    Format : Timed Text
    Muxing mode : sbtl
    Codec ID : tx3g
    Duration : 1h 30mn
    Bit rate mode : Variable
    Bit rate : 70 bps
    Stream size : 46.4 KiB (0%)
    Title : Subtitle Ukrainian
    Language : Ukrainian
    Encoded date : UTC 2014-02-10 07:51:48
    Tagged date : UTC 2014-02-10 07:51:48

    Text #3
    ID : 8
    Format : Timed Text
    Muxing mode : sbtl
    Codec ID : tx3g
    Duration : 1h 30mn
    Bit rate mode : Variable
    Bit rate : 61 bps
    Stream size : 40.5 KiB (0%)
    Title : Subtitle English
    Language : English
    Encoded date : UTC 2014-02-10 07:51:48
    Tagged date : UTC 2014-02-10 07:51:48

    Menu
    ID : 9
    Codec ID : text
    Duration : 1h 30mn
    Language : English
    Encoded date : UTC 2014-02-10 07:53:32
    Tagged date : UTC 2014-02-10 07:53:32
    Bit rate mode : CBR
    x264 log

    x264 info: frame I:1429 Avg QP:19.81 size: 16807
    x264 info: frame P:129445 Avg QP:22.13 size: 8229
    x264 info: mb I I16..4: 49.8% 0.0% 50.2%
    x264 info: mb P I16..4: 1.8% 0.0% 2.2% P16..4: 49.1% 17.5% 10.0% 1.9% 0.9% skip:16.5%
    x264 info: coded y,uvDC,uvAC intra: 44.7% 61.9% 25.7% inter: 39.5% 35.9% 15.7%
    x264 info: i16 v,h,dc,p: 41% 15% 12% 32%
    x264 info: i4 v,h,dc,ddl,ddr,vr,hd,vl,hu: 33% 12% 18% 6% 7% 7% 7% 6% 4%
    x264 info: i8c dc,h,v,p: 62% 13% 20% 5%
    x264 info: ref P L0: 73.0% 27.0%
    x264 info: kb/s:1596.45
    Скриншоты для ознакомления




    Залил: gekka
    Размер скачиваемого торрента: 1.26 GB (1356410149 Bytes)

    Гравитация / Gravity (2013) BDRip-AVC | iPhone | D | iTunes скачать через торрент бесплатно
    загрузка...
    Рейтинг →
     (голосов: 1, оценка 4/5, голосовать можно 1 раз )

    Другие торренты по теме:

  • Гравитация / Притяжение / Gravity (2012) WEB-DLRip, HDTVRip | L2
  • OST - Гравитация / Gravity (2013) MP3 скачать через торрент бесплатно
  • Гравитация / Gravity (2013) CAMRip от INTERCINEMA скачать через торрент бесплатно
  • Гравитация / Gravity (2013) CAMRip *PROPER* от INTERCINEMA
  • Гравитация / Gravity (2013) DVDScr | Звук с TS
  • Гравитация / Gravity (2013) DVDScr | Чистый звук скачать через торрент бесплатно
  • Гравитация / Gravity (2013) WEBRip | Чистый звук скачать через торрент бесплатно
  • Гравитация / Gravity (2013) WEB-DLRip от New-Team | Чистый звук


    • Комментарии (0):

      Информация

      Информация

        Посетители, находящиеся в группе Гости, не могут оставлять комментарии в данной новости.

        ↓ Меню



        ↓ Опрос

        А Вы добавили сайт в закладки?
        Да
        Не


        Top 10 за месяц (Фильмы)