.
Авторизация | Регистрация
Хочешь лучшие торренты? Добавь свой email!
Добавить
» » Люблю тебя, чувак / I Love You, Man (2009) BDRip-AVC | iPhone | D скачать торрент бесплатно




    Люблю тебя, чувак / I Love You, Man (2009) BDRip-AVC | iPhone | D скачать торрент бесплатно

    Опубликовал: Админ | Дата: 27-02-2015, 11:10 | Просмотров: 243




    Люблю тебя, чувак / I Love You, Man (2009) BDRip-AVC 480p | iPhone | D

    Русское название: Люблю тебя, чувак
    Русское название в мировом прокате: I Love You, Man
    Создали в: 2009
    Категория жанра: комедия, мелодрама
    Главный режиссер: Джон Гамбург
    Актеры: Пол Радд, Джейсон Сигел, Рашида Джонс, Энди Сэмберг, Дж.К. Симмонс, Джейн Куртин, Джон Фавро, Джейми Прессли, Азиз Ансари, Лу Ферриньо

    Сюжет фильма:
    Успешный риэлтор Питер Клэйвен наконец-то сделал предложение женщине своей мечты и тут же столкнулся с неожиданной проблемой. У него нет лучшего друга, которому можно поручить важную миссию шафера на свадьбе. После череды специфических свиданий Питер наконец-то нашёл подходящего человека, полную себе противоположность, Сиднея. Да вот только благодаря новому другу Питер понял, что жил не правильно и по-настоящему не умел веселиться... и, похоже, передумал жениться.


    Снималось в: США
    Киностудия: © DreamWorks SKG, De Line Pictures, Bernard Gayle Productions
    Rating: 5
    Время просмотра: 01:44:46
    Перевод текста: Русский профессиональный (дубляж)

    Файл
    Кодек для видео: H.264
    Качество фильма: BDRip-AVC 480p iPhone
    Информация о видео: 640x480 (851x480) at 23.976 fps, AVC at 1700 kbps
    Информация о звуке:
    1: 48 kHz, AAC 2.0, 150 kbps - Русский дублированный перевод
    2: 48 kHz, AAC 2.0, 160 kbps - Английский

    Субтитры: Русские

    iTunes Meta Tags

    Sort Name: I Love You, Man
    XID: Apple:vendor_id:2009-401775
    contentID: 316331669
    Copyright: © DreamWorks
    Screenwriters: Ларри Левин, Джон Гамбург
    Producers: Джеффри Клиффорд, Дональд Де Лайн, Эндрю Хаас
    Director: John Hamburg
    Cast: Пол Радд, Джейсон Сигел, Рашида Джонс, Энди Сэмберг, Дж.К. Симмонс, Джейн Куртин, Джон Фавро, Джейми Прессли, Азиз Ансари, Лу Ферриньо
    Studio: © DreamWorks SKG, De Line Pictures, Bernard Gayle Productions
    Rating: 5
    Long Deion: Успешный риэлтор Питер Клэйвен наконец-то сделал предложение женщине своей мечты и тут же столкнулся с неожиданной проблемой. У него нет лучшего друга, которому можно поручить важную миссию шафера на свадьбе. После череды специфических свиданий Питер наконец-то нашёл подходящего человека, полную себе противоположность, Сиднея. Да вот только благодаря новому другу Питер понял, что жил не правильно и по-настоящему не умел веселиться… и, похоже, передумал жениться.
    Deion: Успешный риэлтор Питер Клэйвен наконец-то сделал предложение женщине своей мечты и тут же столкнулся с неожиданной проблемой. У него нет лучшего друга, которому можно поручить важную миссию шафера на свадьбе.
    Release Date: 2009-03-20T07:00:00Z
    Genre: Comedy
    Comments: Ищу друга... Геям просьба не беспокоиться
    Artist: Джон Гамбург
    Name: Люблю тебя, чувак
    Media Info

    General
    Complete name : C:CREATE480outI Love You Man.2009 (SD).m4v
    Format : MPEG-4
    Codec ID : M4V
    File size : 1.47 GiB
    Duration : 1h 44mn
    Overall bit rate mode : Variable
    Overall bit rate : 2 009 Kbps
    Movie name : Люблю тебя, чувак
    Performer : Джон Гамбург
    Genre : Comedy
    Recorded date : UTC 2009-03-20 07:00:00
    Encoded date : UTC 2014-02-08 18:58:47
    Tagged date : UTC 2014-02-08 19:12:33
    Copyright : © DreamWorks
    Cover : Yes
    Comment : Ищу друга... Геям просьба не беспокоиться
    sonm : I Love You, Man
    desc : Успешный риэлтор Питер Клэйвен наконец-то сделал предложение женщине своей мечты и тут же столкнулся с неожиданной проблемой. У него нет лучшего друга, которому можно поручить важную миссию шафера на свадьбе.
    ldes : Успешный риэлтор Питер Клэйвен наконец-то сделал предложение женщине своей мечты и тут же столкнулся с неожиданной проблемой. У него нет лучшего друга, которому можно поручить важную миссию шафера на свадьбе. После череды специфических свиданий Питер наконец-то нашёл подходящего человека, полную себе противоположность, Сиднея. Да вот только благодаря новому другу Питер понял, что жил не правильно и по-настоящему не умел веселиться… и, похоже, передумал жениться.
    stik : 9
    rtng : 0
    cnID : 316331669
    xid : Apple:vendor_id:2009-401775
    iTunEXTC : mpaa|R|400|

    Video #1
    ID : 1
    Format : AVC
    Format/Info : Advanced Video Codec
    Format profile : Baseline@L3.0
    Format settings, CABAC : No
    Format settings, ReFrames : 2 frames
    Codec ID : avc1
    Codec ID/Info : Advanced Video Coding
    Duration : 1h 44mn
    Bit rate : 1 700 Kbps
    Maximum bit rate : 6 383 Kbps
    Width : 640 pixels
    Height : 480 pixels
    Display aspect ratio : 16:9
    Frame rate mode : Constant
    Frame rate : 23.976 fps
    Color space : YUV
    Chroma subsampling : 4:2:0
    Bit depth : 8 bits
    Scan type : Progressive
    Bits/(Pixel*Frame) : 0.231
    Stream size : 1.24 GiB (84%)
    Title : I Love You Man _2009_
    Writing library : x264 core 140 r2377 40 929f149 tMod 8-bit@4:2:0 X86_64
    Encoding settings : cabac=0 / ref=2 / deblock=1:-2:-2 / analyse=0x1:0x131 / me=umh / subme=7 / psy=1 / fade_compensate=1.00 / psy_rd=1.00:0.15 / mixed_ref=1 / me_range=32 / chroma_me=1 / trellis=2 / 8x8dct=0 / cqm=0 / deadzone=21,11 / fast_pskip=0 / chroma_qp_offset=-3 / threads=12 / lookahead_threads=2 / sliced_threads=0 / nr=0 / decimate=0 / interlaced=0 / bluray_compat=0 / constrained_intra=0 / fgo=0 / bframes=0 / weightp=0 / keyint=250 / keyint_min=23 / scenecut=40 / intra_refresh=0 / rc_lookahead=120 / rc=2pass / mbtree=1 / bitrate=1700 / ratetol=1.0 / qcomp=0.65 / qpmin=0:0:0 / qpmax=69:69:69 / qpstep=4 / cplxblur=20.0 / qblur=0.5 / vbv_maxrate=5000 / vbv_bufsize=5000 / nal_hrd=none / filler=0 / ip_ratio=1.30 / aq=1:0.90 / aq-sensitivity=10.00 / aq-factor=1.00:1.00:1.00 / aq2=0 / aq3=1:0.50:0.50:0.50:0.50:0.50:0.50:0.50:0.50 / aq3-sensitivity=10.00 / aq3-factor=1.00:1.00:1.00:1.00:1.00:1.00 / aq3-boundary=205:56:9
    Language : English
    Encoded date : UTC 2014-02-08 18:58:47
    Tagged date : UTC 2014-02-08 18:59:16
    Matrix coefficients : BT.709

    Video #2
    ID : 6
    Format : JPEG
    Codec ID : jpeg
    Duration : 1h 44mn
    Bit rate mode : Variable
    Bit rate : 2 063 bps
    Width : 640 pixels
    Height : 360 pixels
    Display aspect ratio : 16:9
    Frame rate mode : Variable
    Frame rate : 0.004 fps
    Minimum frame rate : 0.002 fps
    Maximum frame rate : 0.009 fps
    Color space : YUV
    Chroma subsampling : 4:2:0
    Bit depth : 8 bits
    Compression mode : Lossy
    Bits/(Pixel*Frame) : 2.238
    Stream size : 1.41 MiB (0%)
    Language : English
    Encoded date : UTC 2014-02-08 19:12:27
    Tagged date : UTC 2014-02-08 19:12:28

    Audio #1
    ID : 2
    Format : AAC
    Format/Info : Advanced Audio Codec
    Format profile : LC
    Codec ID : 40
    Duration : 1h 44mn
    Bit rate mode : Variable
    Bit rate : 154 Kbps
    Maximum bit rate : 237 Kbps
    Channel(s) : 2 channels
    Channel positions : Front: L R
    Sampling rate : 48.0 KHz
    Compression mode : Lossy
    Stream size : 115 MiB (8%)
    Title : DUB
    Language : Russian
    Encoded date : UTC 2014-02-08 18:50:28
    Tagged date : UTC 2014-02-08 18:59:16

    Audio #2
    ID : 3
    Format : AAC
    Format/Info : Advanced Audio Codec
    Format profile : LC
    Codec ID : 40
    Duration : 1h 44mn
    Bit rate mode : Variable
    Bit rate : 150 Kbps
    Maximum bit rate : 242 Kbps
    Channel(s) : 2 channels
    Channel positions : Front: L R
    Sampling rate : 48.0 KHz
    Compression mode : Lossy
    Stream size : 113 MiB (7%)
    Title : Original
    Language : English
    Encoded date : UTC 2014-02-08 18:56:34
    Tagged date : UTC 2014-02-08 18:59:16

    Text
    ID : 4
    Format : Timed Text
    Muxing mode : sbtl
    Codec ID : tx3g
    Duration : 1h 41mn
    Bit rate mode : Variable
    Bit rate : 109 bps
    Stream size : 81.6 KiB (0%)
    Title : Subtitle Russian
    Language : Russian
    Encoded date : UTC 2014-02-08 18:59:16
    Tagged date : UTC 2014-02-08 18:59:16

    Menu
    ID : 5
    Codec ID : text
    Duration : 1h 44mn
    Language : English
    Encoded date : UTC 2014-02-08 19:00:25
    Tagged date : UTC 2014-02-08 19:00:25
    Bit rate mode : CBR
    x264

    x264 info: frame I:1828 Avg QP:18.75 size: 35664
    x264 info: frame P:148892 Avg QP:21.46 size: 8520
    x264 info: mb I I16..4: 29.4% 0.0% 70.6%
    x264 info: mb P I16..4: 1.1% 0.0% 0.9% P16..4: 52.6% 14.9% 8.7% 1.5% 0.7% skip:19.7%
    x264 info: coded y,uvDC,uvAC intra: 52.1% 70.6% 45.5% inter: 32.2% 34.5% 13.7%
    x264 info: i16 v,h,dc,p: 46% 16% 8% 29%
    x264 info: i4 v,h,dc,ddl,ddr,vr,hd,vl,hu: 31% 14% 14% 6% 7% 9% 6% 8% 4%
    x264 info: i8c dc,h,v,p: 51% 14% 27% 8%
    x264 info: ref P L0: 74.7% 25.3%
    x264 info: kb/s:1697.32
    Скриншоты для ознакомления




    Залил: gekka
    Размер скачиваемого торрента: 1.47 GB (1578851289 Bytes)

    Люблю тебя, чувак / I Love You, Man (2009) BDRip-AVC | iPhone | D торрент скачать бесплатно
    загрузка...
    Рейтинг →
     (голосов: 1, оценка 4/5, голосовать можно 1 раз )

    Другие торренты по теме:

  • Я люблю тебя, папочка / I Love You, Daddy (2017) DVDScr | L
  • Люблю тебя, люблю / Je taime je taime (1968) DVDRip | L1
  • Скажи: Я люблю тебя / Sukitte Ii na yo. (2012) HDTVRip 720p | AniFilm
  • OST - Гавана, я люблю тебя / 7 Days In Havana (2012) MP3
  • Гавана, я люблю тебя / 7 dias en La Habana / 7 Days in Havana (2009) BDRip 1080p от NoLimits-Team
  • Я люблю тебя / I am in love (2010) SATRip от Files-x
  • Белый День - Я люблю тебя, Мама! (2013) MP3
  • Раз, два! Люблю тебя! / Лимузин (2013) SATRip


    • Комментарии (0):

      Информация

      Информация

        Посетители, находящиеся в группе Гости, не могут оставлять комментарии в данной новости.

        ↓ Меню



        ↓ Опрос

        А Вы добавили сайт в закладки?
        Да
        Не


        Top 10 за месяц (Фильмы)