.
Авторизация | Регистрация
Хочешь лучшие торренты? Добавь свой email!
Добавить
» » Чужими глазами / В глазах всех остальных / Aux yeux de tous (2012) DVB от MediaClub | P2 скачать торрент бесплатно




    Чужими глазами / В глазах всех остальных / Aux yeux de tous (2012) DVB от MediaClub | P2 скачать торрент бесплатно

    Опубликовал: Админ | Дата: 27-02-2015, 11:10 | Просмотров: 248




    Детально о кино
    Русское название: Чужими глазами / В глазах всех остальных
    Русское название в мировом прокате: Aux yeux de tous
    Создали в: 2012
    Категория жанра: Триллер
    Главный режиссер: Арно Дюпре, Седрик Хименес
    Актеры: Мелани Дотей, Оливье Бартелеми, Франсис Рено, Федор Аткин, Валери Сибилья, Batiste De Oliveira, Ruth Elkrief, Жан-Марк Минео, Паскаль Эно, Thomas Misrachi

    Сюжет фильма:
    В Париже, на вокзале Аустерлиц в результате взрыва погибли 17 человек, 34 ранены. Полиция предполагает, что к теракту причастна исламистская группировка. Анонимный хакер, желая добиться справедливости, берётся самостоятельно расследовать дело и выяснить кто совершил взрыв. Взломав все городские камеры наблюдения, он быстро вычисляет исполнителей и заказчика…



    Снималось в: Франция
    Киностудия: Kingswood Productions
    Время просмотра: 01:15:55
    Перевод текста: Профессиональный двухголосый (НТВ )

    Файл
    Качество фильма: DVB
    Информация о видео: MPEG-2, 2108 Кбит/с, 720x576@1024x576
    Информация о звуке: Русский (АС3, 2 ch, 192 Кбит/с) / (MP2, 2 ch, 192 Кбит/с)

    Семпл

    Скриншоты для ознакомления

    MI
    Общее
    Полное имя : Chjuzhimi.glazami.2012.DVB.MediaClub.ts
    Формат : MPEG-TS
    Профиль формата : No PAT/PMT
    Размер файла : 1,39 Гбайт
    Продолжительность : 1 ч. 15 м.
    Режим общего битрейта : Переменный
    Общий поток : 2625 Кбит/сек

    Видео
    Идентификатор : 322 (0x142)
    Формат : MPEG Video
    Версия формата : Version 2
    Профиль формата : Main@Main
    Параметр BVOP формата : Да
    Параметр матрицы формата : Выборочная
    Параметр GOP формата : Variable
    Продолжительность : 1 ч. 15 м.
    Вид битрейта : Переменный
    Битрейт : 2108 Кбит/сек
    Максимальный битрейт : 15,0 Мбит/сек
    Ширина : 720 пикселей
    Высота : 576 пикселей
    Соотношение сторон : 16:9
    Частота кадров : 25,000 кадров/сек
    Стандарт вещания : PAL
    Цветовое пространство : YUV
    Субдискретизация насыщенности : 4:2:0
    Битовая глубина : 8 бит
    Тип развёртки : Чересстрочная
    Порядок развёртки : Верхнее поле первое
    Метод сжатия : С потерями
    Бит/(Пиксели*Кадры) : 0.203
    Размер потока : 1,12 Гбайт (80%)

    Аудио #1
    Идентификатор : 405 (0x195)
    Формат : MPEG Audio
    Версия формата : Version 1
    Профиль формата : Layer 2
    Продолжительность : 1 ч. 15 м.
    Вид битрейта : Постоянный
    Битрейт : 192 Кбит/сек
    Каналы : 2 канала
    Частота : 48,0 КГц
    Метод сжатия : С потерями
    Задержка видео : -921 мс.
    Размер потока : 104 Мбайт (7%)

    Аудио #2
    Идентификатор : 435 (0x1B3)
    Формат : AC-3
    Формат/Информация : Audio Coding 3
    Расширение режима : CM (complete main)
    Параметр Endianness формата : Big
    Продолжительность : 1 ч. 15 м.
    Вид битрейта : Постоянный
    Битрейт : 192 Кбит/сек
    Каналы : 2 канала
    Расположение каналов : Front: L R
    Частота : 48,0 КГц
    Битовая глубина : 16 бит
    Метод сжатия : С потерями
    Задержка видео : -1 с. 41 мс.
    Размер потока : 104 Мбайт (7%)


    Релиз подготовил:
    Залил: poja
    Размер скачиваемого торрента: 1.39 GB (1493109160 Bytes)

    Чужими глазами / В глазах всех остальных / Aux yeux de tous (2012) DVB от MediaClub | P2 торрент скачать бесплатно
    загрузка...
    Рейтинг →
     (голосов: 1, оценка 5/5, голосовать можно 1 раз )

    Другие торренты по теме:

  • Чужими глазами / Aux yeux de tous (2012) DVDRip | НТВ скачать через торрент бесплатно


    • Комментарии (0):

      Информация

      Информация

        Посетители, находящиеся в группе Гости, не могут оставлять комментарии в данной новости.

        ↓ Меню



        ↓ Опрос

        А Вы добавили сайт в закладки?
        Да
        Не


        Top 10 за месяц (Фильмы)