.
Авторизация | Регистрация
Хочешь лучшие торренты? Добавь свой email!
Добавить
» » Наперегонки с Луной / Racing with the Moon (1984) WEB-DLRip от New-Team скачать через торрент бесплатно




    Наперегонки с Луной / Racing with the Moon (1984) WEB-DLRip от New-Team скачать через торрент бесплатно

    Опубликовал: Админ | Дата: 27-02-2015, 11:10 | Просмотров: 284



    Снималось в: США
    Создали в: Jaffe-Lansing, Paramount Pictures

    Категория жанра: драма, мелодрама, комедия
    Создали в: 1984
    Время просмотра: 01:48:22

    Перевод текста: Профессиональный (многоголосый, закадровый)
    Оригинальная аудиодорожка: нет
    Субтитры подготовлены: нет

    Главный режиссер: Ричард Бенжамин / Richard Benjamin

    Актеры:
    Шон Пенн /Sean Penn/, Элизабет МакГоверн /Elizabeth McGovern/, Николас Кейдж /Nicolas Cage/, Джон Карлен /John Karlen/, Рутания Олда /Rutanya Alda/, Кэйт Уильямсон /Kate Williamson/, Криспин Гловер /Crispin Glover/...

    Сюжет:
    Рождество 1942 года. Главные герои — Генри Нэш и его друг Никки скоро должны стать морскими пехотинцами. В то время, как Генри сражен недавно появившейся в городке девушкой, хулиганистый и несерьезный Никки попадает в переделку. Чтобы помочь другу выпутаться, Генри приходится просить помощи у загадочной незнакомки…
    Яркие события в жизни героев происходят на фоне одного из самых драматичных периодов в истории Америки…




    Исходник: WEB-DL 720p
    Тип релиза: WEB-DLRip
    Контейнер: AVI

    Информация о видео: 656x368 (16:9), 23,976 fps, XviD ~ 826 kbps avg, 0.143 bit/pixel
    Информация о звуке: 48 kHz, MP3 2.0, 128 kbps

    Раздача от:
    MediaInfo

    Общее
    Полное имя : Naperegonki.s.lunoy.1984.WEB-DLRip-745_New-team_by_AVP_Studio.avi
    Формат : AVI
    Формат/Информация : Audio Video Interleave
    Размер файла : 745 Мбайт
    Продолжительность : 1 ч. 48 м.
    Общий поток : 963 Кбит/сек
    Программа кодирования : VirtualDubModRus 1.5.10.2 (build 2542/release)
    Библиотека кодирования : VirtualDubMod build 2542/release

    Видео
    Идентификатор : 0
    Формат : MPEG-4 Visual
    Профиль формата : Advanced Simple@L5
    Параметр BVOP формата : 1
    Параметр QPel формата : Нет
    Параметр GMC формата : Без точки перехода
    Параметр матрицы формата : Выборочная
    Идентификатор кодека : XVID
    Идентификатор кодека/Подсказка : XviD
    Продолжительность : 1 ч. 48 м.
    Битрейт : 826 Кбит/сек
    Ширина : 656 пикселей
    Высота : 368 пикселей
    Соотношение сторон : 16:9
    Частота кадров : 23,976 кадра/сек
    Цветовое пространство : YUV
    Субдискретизация насыщенности : 4:2:0
    Битовая глубина : 8 бит
    Тип развёртки : Прогрессивная
    Метод сжатия : С потерями
    Бит/(Пиксели*Кадры) : 0.143
    Размер потока : 639 Мбайт (86%)
    Библиотека кодирования : XviD 73

    Аудио
    Идентификатор : 1
    Формат : MPEG Audio
    Версия формата : Version 1
    Профиль формата : Layer 3
    Идентификатор кодека : 55
    Идентификатор кодека/Подсказка : MP3
    Продолжительность : 1 ч. 48 м.
    Вид битрейта : Постоянный
    Битрейт : 128 Кбит/сек
    Каналы : 2 канала
    Частота : 48,0 КГц
    Метод сжатия : С потерями
    Размер потока : 99,0 Мбайт (13%)
    Выравнивание : Соединение по промежуткам
    Продолжительность промежутка : 42 мс. (1,00 видеокадр)
    Время предзагрузки промежутка : 504 мс.
    Библиотека кодирования : LAME3.99r
    Залил: AVPStudio
    Размер скачиваемого торрента: 744.94 MB (781129728 Bytes)


    Наперегонки с Луной / Racing with the Moon (1984) WEB-DLRip от New-Team скачать через торрент бесплатно
    загрузка...
    Рейтинг →
     (голосов: 1, оценка 5/5, голосовать можно 1 раз )

    Другие торренты по теме:

  • Наперегонки с Луной / Racing with the Moon (1984) WEB-DLRip-AVC от New-Team скачать через торрент бесплатно
  • Наперегонки с Луной / Racing with the Moon (1984) WEB-DLRip от New-Team


    • Комментарии (0):

      Информация

      Информация

        Посетители, находящиеся в группе Гости, не могут оставлять комментарии в данной новости.

        ↓ Меню



        ↓ Опрос

        А Вы добавили сайт в закладки?
        Да
        Не


        Top 10 за месяц (Фильмы)