.
Авторизация | Регистрация
Хочешь лучшие торренты? Добавь свой email!
Добавить
» » Холостячки в Вегасе / Best Night Ever (2014) WEB-DLRip-AVC скачать через торрент бесплатно




    Холостячки в Вегасе / Best Night Ever (2014) WEB-DLRip-AVC скачать через торрент бесплатно

    Опубликовал: Админ | Дата: 27-02-2015, 11:10 | Просмотров: 238




    Детально о кино
    Русское название: Холостячки в Вегасе
    Русское название в мировом прокате: Best Night Ever
    Создали в: 2013
    Категория жанра: Комедия
    Главный режиссер: Джейсон Фридберг, Аарон Зельцер
    Актеры: Дезри Холл, Саманта Колберн, Эдвина Ричард, Криста Флэнеган, Кристиан Барильяс, Джейсон Бобьен, Гайл Бранко, Хантер Драго, Мэтт Драго, Энди Фавро

    Сюжет фильма: Перед тем как выйти замуж, молодая красотка отправляется с тремя лучшими подружками на свою последнюю холостяцкую вечеринку в Лас-Вегас. Все, что ни случается, к лучшему — гласит народная мудрость. Неужели это так, даже если все сумасшествие, происходящее в Лас-Вегасе, будет записано на видео?..



    Снималось в: США
    Время просмотра: 01:18:36
    Тип перевода: Профессиональное (многоголосое)

    Файл
    Тип видео: MKV
    Качество фильма: WEB-DLRip-AVC
    Информация о видео: 2264 kb/s, 1024x552
    Информация о звуке: AC3, 384 kb/s (2 ch)





    MI
    Format : Matroska
    Format version : Version 2
    File size : 1.45 GiB
    Duration : 1h 18mn
    Overall bit rate : 2 648 Kbps
    Encoded date : UTC 2014-02-08 02:33:16
    Writing application : mkvmerge v6.1.0 (;Old Devil;) built on Mar 4 2013 09:10:42
    Writing library : libebml v1.3.0 libmatroska v1.4.0

    Video
    ID : 1
    Format : AVC
    Format/Info : Advanced Video Codec
    Format profile : High@L4.1
    Format settings, CABAC : Yes
    Format settings, ReFrames : 12 frames
    Codec ID : V_MPEG4/ISO/AVC
    Duration : 1h 18mn
    Bit rate : 2 264 Kbps
    Width : 1 024 pixels
    Height : 552 pixels
    Display aspect ratio : 1.85:1
    Frame rate : 25.000 fps
    Color space : YUV
    Chroma subsampling : 4:2:0
    Bit depth : 8 bits
    Scan type : Progressive
    Bits/(Pixel*Frame) : 0.160
    Stream size : 1.21 GiB (84%)
    Writing library : x264 core 130 r2273 b3065e6
    Encoding settings : cabac=1 / ref=12 / deblock=1:-3:-3 / analyse=0x3:0x133 / me=umh / subme=11 / psy=1 / psy_rd=1.00:0.20 / mixed_ref=1 / me_range=48 / chroma_me=1 / trellis=2 / 8x8dct=1 / cqm=0 / deadzone=21,11 / fast_pskip=0 / chroma_qp_offset=-3 / threads=6 / lookahead_threads=1 / sliced_threads=0 / nr=0 / decimate=0 / interlaced=0 / bluray_compat=0 / constrained_intra=0 / bframes=8 / b_pyramid=2 / b_adapt=2 / b_bias=0 / direct=3 / weightb=1 / open_gop=0 / weightp=2 / keyint=250 / keyint_min=25 / scenecut=40 / intra_refresh=0 / rc=2pass / mbtree=0 / bitrate=2264 / ratetol=1.0 / qcomp=0.60 / qpmin=0 / qpmax=69 / qpstep=4 / cplxblur=20.0 / qblur=0.5 / ip_ratio=1.40 / pb_ratio=1.30 / aq=1:1.00
    Default : Yes
    Forced : No

    Audio
    ID : 2
    Format : AC-3
    Format/Info : Audio Coding 3
    Mode extension : CM (complete main)
    Format settings, Endianness : Big
    Codec ID : A_AC3
    Duration : 1h 18mn
    Bit rate mode : Constant
    Bit rate : 384 Kbps
    Channel(s) : 2 channels
    Channel positions : Front: L R
    Sampling rate : 44.1 KHz
    Bit depth : 16 bits
    Compression mode : Lossy
    Stream size : 216 MiB (15%)
    Default : Yes
    Forced : No
    Скриншоты для ознакомления

    Размер скачиваемого торрента: 1.45 GB (1560921082 Bytes)

    Холостячки в Вегасе / Best Night Ever (2014) WEB-DLRip-AVC скачать через торрент бесплатно
    загрузка...
    Рейтинг →
     (голосов: 1, оценка 4/5, голосовать можно 1 раз )

    Другие торренты по теме:

  • Холостячки в Вегасе (2013) скачать через торрент бесплатно
  • Холостячки в Вегасе / Best Night Ever (2014) WEB-DLRip
  • Холостячки в Вегасе / Best Night Ever (2014) WEB-DL 1080p от FreeRutor | D
  • Холостячки в Вегасе / Best Night Ever (2014) WEB-DLRip от Prok-Torrent скачать через торрент бесплатно
  • Холостячки в Вегасе / Best Night Ever (2014) WEB-DLRip | D скачать через торрент бесплатно


    • Комментарии (0):

      Информация

      Информация

        Посетители, находящиеся в группе Гости, не могут оставлять комментарии в данной новости.

        ↓ Меню



        ↓ Опрос

        А Вы добавили сайт в закладки?
        Да
        Не


        Top 10 за месяц (Фильмы)