.
Авторизация | Регистрация
Хочешь лучшие торренты? Добавь свой email!
Добавить
» » Господин Никто / Mr. Nobody (2009) BDRip-AVC | iPhone | Extended Cut скачать через торрент бесплатно




    Господин Никто / Mr. Nobody (2009) BDRip-AVC | iPhone | Extended Cut скачать через торрент бесплатно

    Опубликовал: Админ | Дата: 27-02-2015, 11:10 | Просмотров: 281




    Господин Никто / Mr. Nobody Extended Cut (2009) BDRip-AVC 480p | iPhone


    Русское название: Господин Никто Расширенная версия
    Русское название в мировом прокате: Mr. Nobody Extended Cut
    Создали в: 2009
    Категория жанра: фантастика, фэнтези, драма, мелодрам
    Главный режиссер: Жако ван Дормель
    Актеры: Джаред Лето, Сара Полли, Дайан Крюгер, Лин Дэн Пэм, Рис Иванс, Наташа Литтл, Тоби Регбо, Джуно Темпл, Клер Стоун, Томас Бирн

    Сюжет фильма:
    Проснувшийся немощным стариком Немо Никто оказывается последним смертным в гротескном будущем. Все люди уже давно бессмертны и с удовольствием наблюдают за телешоу, где главная звезда - дряхлый и безумный старик Немо, доживающий свои последние дни. Накануне конца к нему приходит журналист, и Немо рассказывает ему свою историю перескакивая из одной жизни в другую, параллельную, несколько раз за рассказ успев умереть.



    Снималось в: Франция, Германия, Канада, Бельгия
    Киностудия: © Pan Europeenne, Virtual Films, Christal Films
    Время просмотра: 02:35:36
    Перевод текста: Русский профессиональный многоголосый закадровый вставки на непереведённые места - Авторский (acolith)

    Файл
    Кодек для видео: H.264
    Качество фильма: BDRip-AVC 480p iPhone
    Информация о видео: 640x364 (852x364) at 23.976 fps, AVC at 1800 kbps
    Информация о звуке:
    1: 48 kHz, AAC 2.0, 160 kbps - Русский профессиональный многоголосый закадровый вставки Авторский (acolith)
    3: 48 kHz, AAC 2.0, 180 kbps - Английский

    Субтитры: отсутствуют

    iTunes Meta Tags

    Sort Name: Mr. Nobody
    XID: Apple:vendor_id:2009- 232785
    contentID: 232785
    Copyright: © Pan Europeenne, Virtual Films, Christal Films
    Screenwriters: Жако ван Дормель
    Producers: Филипп Годо, Жан-Ив Асселин, Натали Гастальдо
    Director: Jaco Van Dormael
    Cast: Джаред Лето, Сара Полли, Дайан Крюгер, Лин Дэн Пэм, Рис Иванс, Наташа Литтл, Тоби Регбо, Джуно Темпл, Клер Стоун, Томас Бирн*Jared Leto (Nemo Nobody), Diane Kruger (Anna), Linh Dan Pham (Jean), Toby Regbo (Nemo age 16), Clare Stone (Elise age 15), Sarah Polley (Elise), Rhys Ifans (Nemo;s Father), Natasha Little (Nemo;s Mother), Juno Temple (Anna aged 15), Daniel Mays*
    Studio: © Pan Europeenne, Virtual Films, Christal Films
    Long Deion: Действие картины происходит в не слишком отдаленном будущем. Главный герой внезапно просыпается в 2092 году дряхлым стариком и понимает, что он является 120-летним последним смертным на планете, доживающим свой век среди счастливых бессмертных людей.
    Deion: Действие картины происходит в не слишком отдаленном будущем. Главный герой внезапно просыпается в 2092 году дряхлым стариком и понимает, что он является 120-летним последним смертным на планете, доживающим свой век среди счастливых бессмертных людей.
    Release Date: 2009-09-12T08:00:00Z
    Genre: Drama, Fantasy
    Comments: Всё возможно, пока не сделан выбор
    Artist: Jaco Van Dormael
    Name: Господин Никто
    Media Info

    General
    Complete name : C:CREATE480outMr.Nobody.2009 (SD).m4v
    Format : MPEG-4
    Codec ID : M4V
    File size : 2.32 GiB
    Duration : 2h 35mn
    Overall bit rate mode : Variable
    Overall bit rate : 2 131 Kbps
    Movie name : Господин Никто
    Performer : Jaco Van Dormael
    Genre : Drama, Fantasy
    Recorded date : UTC 2009-09-12 08:00:00
    Encoded date : UTC 2014-02-08 13:42:17
    Tagged date : UTC 2014-02-08 15:51:37
    Copyright : © Pan Europeenne, Virtual Films, Christal Films
    Cover : Yes
    Comment : Всё возможно, пока не сделан выбор
    sonm : Mr. Nobody
    desc : Действие картины происходит в не слишком отдаленном будущем. Главный герой внезапно просыпается в 2092 году дряхлым стариком и понимает, что он является 120-летним последним смертным на планете, доживающим свой век среди счастливых бессмертных людей.
    ldes : Действие картины происходит в не слишком отдаленном будущем. Главный герой внезапно просыпается в 2092 году дряхлым стариком и понимает, что он является 120-летним последним смертным на планете, доживающим свой век среди счастливых бессмертных людей.
    stik : 9
    rtng : 0
    cnID : 232785
    xid : Apple:vendor_id:2009- 232785

    Video #1
    ID : 1
    Format : AVC
    Format/Info : Advanced Video Codec
    Format profile : Baseline@L3.0
    Format settings, CABAC : No
    Format settings, ReFrames : 2 frames
    Format settings, GOP : N=1
    Codec ID : avc1
    Codec ID/Info : Advanced Video Coding
    Duration : 2h 35mn
    Bit rate : 1 800 Kbps
    Maximum bit rate : 7 374 Kbps
    Width : 640 pixels
    Height : 364 pixels
    Display aspect ratio : 2.35:1
    Frame rate mode : Constant
    Frame rate : 24.000 fps
    Color space : YUV
    Chroma subsampling : 4:2:0
    Bit depth : 8 bits
    Scan type : Progressive
    Bits/(Pixel*Frame) : 0.322
    Stream size : 1.95 GiB (84%)
    Title : Mr. Nobody _2009_
    Writing library : x264 core 138 r2359 704 48 3f879a0 tMod 8-bit@4:2:0 X86_64
    Encoding settings : cabac=0 / ref=2 / deblock=1:-1:-1 / analyse=0x1:0x131 / me=umh / subme=7 / psy=1 / fade_compensate=1.00 / psy_rd=0.70:0.20 / mixed_ref=1 / me_range=32 / chroma_me=1 / trellis=2 / 8x8dct=0 / cqm=0 / deadzone=21,11 / fast_pskip=0 / chroma_qp_offset=-3 / threads=12 / lookahead_threads=2 / sliced_threads=0 / nr=0 / decimate=0 / interlaced=0 / bluray_compat=0 / constrained_intra=0 / fgo=5 / bframes=0 / weightp=0 / keyint=250 / keyint_min=24 / scenecut=40 / intra_refresh=0 / rc_lookahead=120 / rc=2pass / mbtree=1 / bitrate=1800 / ratetol=1.0 / qcomp=0.70 / qpmin=0:0:0 / qpmax=69:69:69 / qpstep=4 / cplxblur=20.0 / qblur=0.5 / vbv_maxrate=5000 / vbv_bufsize=5000 / nal_hrd=none / ip_ratio=1.30 / aq=4:0.90 / aq-sensitivity=10.00 / aq-factor=1.00:1.00:1.00 / aq2=0 / aq3=0
    Language : English
    Encoded date : UTC 2014-02-08 13:42:17
    Tagged date : UTC 2014-02-08 13:43:43
    Matrix coefficients : BT.709

    Video #2
    ID : 5
    Format : JPEG
    Codec ID : jpeg
    Duration : 2h 35mn
    Bit rate mode : Variable
    Bit rate : 521 bps
    Width : 640 pixels
    Height : 273 pixels
    Display aspect ratio : 2.35:1
    Frame rate mode : Variable
    Frame rate : 0.002 fps
    Minimum frame rate : 0.001 fps
    Maximum frame rate : 0.003 fps
    Color space : YUV
    Chroma subsampling : 4:2:0
    Bit depth : 8 bits
    Compression mode : Lossy
    Bits/(Pixel*Frame) : 1.491
    Stream size : 509 KiB (0%)
    Language : English
    Encoded date : UTC 2014-02-08 15:48:31
    Tagged date : UTC 2014-02-08 15:48:31

    Audio #1
    ID : 2
    Format : AAC
    Format/Info : Advanced Audio Codec
    Format profile : LC
    Codec ID : 40
    Duration : 2h 35mn
    Bit rate mode : Variable
    Bit rate : 164 Kbps
    Maximum bit rate : 234 Kbps
    Channel(s) : 2 channels
    Channel positions : Front: L R
    Sampling rate : 48.0 KHz
    Compression mode : Lossy
    Stream size : 182 MiB (8%)
    Title : Russian MVO _ VO _acolith_
    Language : Russian
    Encoded date : UTC 2014-02-08 13:15:07
    Tagged date : UTC 2014-02-08 13:43:43

    Audio #2
    ID : 3
    Format : AAC
    Format/Info : Advanced Audio Codec
    Format profile : LC
    Codec ID : 40
    Duration : 2h 35mn
    Bit rate mode : Variable
    Bit rate : 164 Kbps
    Maximum bit rate : 234 Kbps
    Channel(s) : 2 channels
    Channel positions : Front: L R
    Sampling rate : 48.0 KHz
    Compression mode : Lossy
    Stream size : 182 MiB (8%)
    Title : English
    Language : English
    Encoded date : UTC 2014-02-08 13:34:21
    Tagged date : UTC 2014-02-08 13:43:43

    Menu
    ID : 4
    Codec ID : text
    Duration : 2h 35mn
    Language : English
    Encoded date : UTC 2014-02-08 13:47:18
    Tagged date : UTC 2014-02-08 13:47:18
    Bit rate mode : CBR
    x264

    x264 info: frame I:6318 Avg QP:16.53 size: 16694
    x264 info: frame P:217747 Avg QP:18.37 size: 9156
    x264 info: mb I I16..4: 43.1% 0.0% 56.9%
    x264 info: mb P I16..4: 0.5% 0.0% 1.0% P16..4: 45.9% 23.2% 17.3% 1.7% 1.1% skip: 9.4%
    x264 info: coded y,uvDC,uvAC intra: 64.5% 63.4% 41.5% inter: 53.2% 38.5% 23.5%
    x264 info: i16 v,h,dc,p: 49% 10% 6% 34%
    x264 info: i4 v,h,dc,ddl,ddr,vr,hd,vl,hu: 26% 15% 17% 6% 8% 9% 6% 7% 5%
    x264 info: i8c dc,h,v,p: 61% 13% 19% 7%
    x264 info: ref P L0: 78.8% 21.2%
    x264 info: kb/s:1798.73
    Скриншоты для ознакомления




    Залил: gekka
    Размер скачиваемого торрента: 2.32 GB (2487250205 Bytes)

    Господин Никто / Mr. Nobody (2009) BDRip-AVC | iPhone | Extended Cut скачать через торрент бесплатно
    загрузка...
    Рейтинг →
     (голосов: 1, оценка 5/5, голосовать можно 1 раз )

    Другие торренты по теме:

  • Господин Никто (Господин Никой) / Gospodin Nikoy (1969) TVRip-AVC от Torrent-Xzona
  • Господин Никто / Mr. Nobody (2009) BDRip 1080p
  • Господин Никто / Mr. Nobody (2009) BDRip 720p | Extended Cut скачать через торрент бесплатно
  • Господин Никто / Mr. Nobody (2009) BDRip | Расширенная версия | Лицензия


    • Комментарии (0):

      Информация

      Информация

        Посетители, находящиеся в группе Гости, не могут оставлять комментарии в данной новости.

        ↓ Меню



        ↓ Опрос

        А Вы добавили сайт в закладки?
        Да
        Не


        Top 10 за месяц (Фильмы)