.
Авторизация | Регистрация
Хочешь лучшие торренты? Добавь свой email!
Добавить
» » Леди-детектив мисс Фрайни Фишер / Miss Fishers Murder Mysteries (2012) DVDRip | P скачать торрент бесплатно




    Леди-детектив мисс Фрайни Фишер / Miss Fishers Murder Mysteries (2012) DVDRip | P скачать торрент бесплатно

    Опубликовал: Админ | Дата: 27-02-2015, 11:10 | Просмотров: 284



    Детально о кино
    Русское название: Леди-детектив мисс Фрайни Фишер
    Русское название в мировом прокате: Miss Fisher;s Murder Mysteries
    Создали в: 2012
    Категория жанра: драма, криминал, детектив
    Главный режиссер: Тони Тилс, Даина Рейд, Дэвид Цезар
    Актеры: Эсси Дэвис, Нэйтан Пейдж, Хьюго Джонстон-Барт, Эшли Каммингс, Ричард Блиф, Трэвис МакМахон, Энтони Шарп, Тэмми МакИнтош, Мириам Маргулис, Руби Рис Уэмисс

    Сюжет фильма:
    Фильм о первой леди-детективе Мельбурна 20-х годов прошлого века мисс Фрайни Фишер, любительнице приключений и красивых мужчин, которая с легкостью управляет не только автомобилем, но и самолётом, всегда носит при себе пистолет с перламутровой ручкой и острый нож. Ещё она прекрасно танцует танго, наверняка на этом список её талантов не заканчивается, и уж точно, что все эти навыки неизменно помогают ей справиться с самыми запутанными делами…


    Официальный сайт

    Снималось в: Австралия
    Киностудия: ABC1
    Время просмотра: ~00:55:00 серия
    Перевод текста: Профессиональный (многоголосый закадровый) студия Лексикон по заказу канала ТВЦ

    Файл
    Кодек для видео: XviD / AC3
    Качество фильма: DVDRip
    Информация о видео: XviD, 624x352 (16:9), 25.000 fps, 1 113 Kbps (0.203 bit/pixel)
    Информация о звуке:
    Аудио #1: AC-3, 48.0 KHz, 2 ch, 192 Kbps, CBR
    Аудио #2: AC-3, 48.0 KHz, 2 ch, 192 Kbps, CBR

    Скриншоты для ознакомления
    Screenshots
    MediaInfo
    General
    Complete name : /Мисс Фишер. Сезон 1/1x01 - Cocaine Blues (Кокаиновый блюз).avi
    Format : AVI
    Format/Info : Audio Video Interleave
    File size : 613 MiB
    Duration : 56mn 56s
    Overall bit rate : 1 505 Kbps
    Writing application : VirtualDubMod 1.5.10.2 (build 2540/release)
    Writing library : VirtualDubMod build 2540/release

    Video
    ID : 0
    Format : MPEG-4 Visual
    Format profile : Advanced Simple@L5
    Format settings, BVOP : 2
    Format settings, QPel : No
    Format settings, GMC : No warppoints
    Format settings, Matrix : Default (H.263)
    Codec ID : XVID
    Codec ID/Hint : XviD
    Duration : 56mn 56s
    Bit rate : 1 113 Kbps
    Width : 624 pixels
    Height : 352 pixels
    Display aspect ratio : 16:9
    Frame rate : 25.000 fps
    Color space : YUV
    Chroma subsampling : 4:2:0
    Bit depth : 8 bits
    Scan type : Progressive
    Compression mode : Lossy
    Bits/(Pixel*Frame) : 0.203
    Stream size : 453 MiB (74%)
    Writing library : XviD 64

    Audio #1
    ID : 1
    Format : AC-3
    Format/Info : Audio Coding 3
    Mode extension : CM (complete main)
    Format settings, Endianness : Big
    Codec ID : 2000
    Duration : 56mn 56s
    Bit rate mode : Constant
    Bit rate : 192 Kbps
    Channel(s) : 2 channels
    Channel positions : Front: L R
    Sampling rate : 48.0 KHz
    Bit depth : 16 bits
    Compression mode : Lossy
    Stream size : 78.2 MiB (13%)
    Alignment : Aligned on interleaves
    Interleave, duration : 160 ms (4.00 video frames)
    Interleave, preload duration : 640 ms

    Audio #2
    ID : 2
    Format : AC-3
    Format/Info : Audio Coding 3
    Mode extension : CM (complete main)
    Format settings, Endianness : Big
    Codec ID : 2000
    Duration : 56mn 56s
    Bit rate mode : Constant
    Bit rate : 192 Kbps
    Channel(s) : 2 channels
    Channel positions : Front: L R
    Sampling rate : 48.0 KHz
    Bit depth : 16 bits
    Compression mode : Lossy
    Stream size : 78.2 MiB (13%)
    Alignment : Aligned on interleaves
    Interleave, duration : 160 ms (4.00 video frames)
    Interleave, preload duration : 640 ms

    Размер скачиваемого торрента: 7.82 GB (8391710720 Bytes)

    Леди-детектив мисс Фрайни Фишер / Miss Fishers Murder Mysteries (2012) DVDRip | P торрент скачать бесплатно
    загрузка...
    Рейтинг →
     (голосов: 1, оценка 5/5, голосовать можно 1 раз )

    Другие торренты по теме:

  • Леди-детектив мисс Фрайни Фишер / Miss Fishers Murder Mysteries (2012) DVDRip | L
  • Леди-детектив мисс Фрайни Фишер / Miss Fishers Murder Mysteries (2015) WEB-DLrip 1080p | ViruseProject
  • Леди-детектив мисс Фрайни Фишер / Miss Fishers Murder Mysteries (2015) WEB-DLrip 1080p | ViruseProject
  • Леди-детектив мисс Фрайни Фишер / Miss Fishers Murder Mysteries (2015) WEB-DLRip | ViruseProject
  • Леди-детектив мисс Фрайни Фишер / Miss Fishers Murder Mysteries (2015) WEB-DLRip 1080p | ViruseProject
  • Леди-детектив мисс Фрайни Фишер / Miss Fishers Murder Mysteries (2015) WEB-DLRip | ViruseProject


    • Комментарии (0):

      Информация

      Информация

        Посетители, находящиеся в группе Гости, не могут оставлять комментарии в данной новости.

        ↓ Меню



        ↓ Опрос

        А Вы добавили сайт в закладки?
        Да
        Не


        Top 10 за месяц (Фильмы)