.
Авторизация | Регистрация
Хочешь лучшие торренты? Добавь свой email!
Добавить
» » Легион / Legion (2010) BDRip-AVC | D, А скачать торрент бесплатно




    Легион / Legion (2010) BDRip-AVC | D, А скачать торрент бесплатно

    Опубликовал: Админ | Дата: 27-02-2015, 11:10 | Просмотров: 263



    Русское название: Легион
    Русское название в мировом прокате: Legion
    Создали в: 2010
    Категория жанра: ужасы, фэнтези, боевик
    Снималось в: США
    Время просмотра: 01:40:08
    Перевод текста: Профессиональный (дублированный), Авторский (одноголосый закадровый) М.Чадов по переводу Д.Пучкова Гоблин ненормативная лексика
    Субтитры: русскике, английские

    Главный режиссер: Скотт Чарльз Стюарт

    Актеры: Пол Беттани, Лукас Блэк, Тайриз Гибсон, Эдрианн Палики, Чарльз С. Даттон, Джон Тенни, Кевин Дюран, Уилла Холлэнд, Кейт Уолш, Деннис Куэйд

    Сюжет фильма:
    Бог окончательно разуверился в человечестве и послал ангелов смерти стереть свое творение с лица земли. На защиту людей встал лишь архангел Михаил, объединив под своим командованием горстку изгоев, которые в закусочной посреди пустыни терпеливо ожидают рождения Мессии.





    Файл
    Качество фильма: BDRip-AVC
    Информация о видео: H.264, 1024 х 432, 23,976 fps, ~2224 Kbps, 0.210 bit/pixel
    Информация о звуке 1: AC3, 6 ch, 448 Kbps - Дубляж
    Информация о звуке 2: AC3, 6 ch, 448 Kbps - Одноголосый закадровый (М.Чадов)
    Информация о звуке 3: AC3, 6 ch, 448 Kbps - Оригинал

    MediaInfo
    Format : Matroska
    Format version : Version 2
    File size : 2.49 GiB
    Duration : 1h 40mn
    Overall bit rate : 3 561 Kbps
    Encoded date : UTC 2014-02-07 08:26:05
    Writing application : mkvmerge v5.3.0 (;I could have danced;) built on Feb 9 2012 10:38:07
    Writing library : libebml v1.2.3 libmatroska v1.3.0
    Attachment : Yes

    Video
    ID : 1
    Format : AVC
    Format/Info : Advanced Video Codec
    Format profile : High@L4.1
    Format settings, CABAC : Yes
    Format settings, ReFrames : 9 frames
    Codec ID : V_MPEG4/ISO/AVC
    Duration : 1h 40mn
    Bit rate : 2 224 Kbps
    Width : 1 024 pixels
    Height : 432 pixels
    Display aspect ratio : 2.40:1
    Frame rate mode : Constant
    Frame rate : 23.976 fps
    Color space : YUV
    Chroma subsampling : 4:2:0
    Bit depth : 8 bits
    Scan type : Progressive
    Bits/(Pixel*Frame) : 0.210
    Stream size : 1.50 GiB (60%)
    Writing library : x264 core 92 r1510 33d382a
    Encoding settings : cabac=1 / ref=9 / deblock=1:-3:-3 / analyse=0x3:0x113 / me=umh / subme=9 / psy=1 / psy_rd=1.00:0.10 / mixed_ref=1 / me_range=32 / chroma_me=1 / trellis=2 / 8x8dct=1 / cqm=0 / deadzone=21,11 / fast_pskip=0 / chroma_qp_offset=-3 / threads=3 / sliced_threads=0 / nr=0 / decimate=1 / interlaced=0 / constrained_intra=0 / bframes=3 / b_pyramid=2 / b_adapt=2 / b_bias=0 / direct=3 / wpredb=0 / wpredp=0 / keyint=250 / keyint_min=25 / scenecut=40 / intra_refresh=0 / rc_lookahead=40 / rc=2pass / mbtree=1 / bitrate=2224 / ratetol=1.0 / qcomp=0.60 / qpmin=10 / qpmax=51 / qpstep=4 / cplxblur=20.0 / qblur=0.5 / ip_ratio=1.40 / aq=1:1.00
    Default : Yes
    Forced : No

    Audio #1
    ID : 2
    Format : AC-3
    Format/Info : Audio Coding 3
    Mode extension : CM (complete main)
    Format settings, Endianness : Big
    Codec ID : A_AC3
    Duration : 1h 40mn
    Bit rate mode : Constant
    Bit rate : 448 Kbps
    Channel(s) : 6 channels
    Channel positions : Front: L C R, Side: L R, LFE
    Sampling rate : 48.0 KHz
    Bit depth : 16 bits
    Compression mode : Lossy
    Stream size : 321 MiB (13%)
    Title : Дублированный
    Language : Russian
    Default : Yes
    Forced : No

    Audio #2
    ID : 3
    Format : AC-3
    Format/Info : Audio Coding 3
    Mode extension : CM (complete main)
    Format settings, Endianness : Big
    Codec ID : A_AC3
    Duration : 1h 40mn
    Bit rate mode : Constant
    Bit rate : 448 Kbps
    Channel(s) : 6 channels
    Channel positions : Front: L C R, Side: L R, LFE
    Sampling rate : 48.0 KHz
    Bit depth : 16 bits
    Compression mode : Lossy
    Stream size : 321 MiB (13%)
    Title : Одноголосая закадровая - Михаил Чадов 448 kbps
    Language : Russian
    Default : No
    Forced : No

    Audio #3
    ID : 4
    Format : AC-3
    Format/Info : Audio Coding 3
    Mode extension : CM (complete main)
    Format settings, Endianness : Big
    Codec ID : A_AC3
    Duration : 1h 40mn
    Bit rate mode : Constant
    Bit rate : 448 Kbps
    Channel(s) : 6 channels
    Channel positions : Front: L C R, Side: L R, LFE
    Sampling rate : 48.0 KHz
    Bit depth : 16 bits
    Compression mode : Lossy
    Stream size : 321 MiB (13%)
    Title : оригинал
    Language : English
    Default : No
    Forced : No

    Text #1
    ID : 5
    Format : UTF-8
    Codec ID : S_TEXT/UTF8
    Codec ID/Info : UTF-8 Plain Text
    Title : Forced
    Language : Russian
    Default : Yes
    Forced : No

    Text #2
    ID : 6
    Format : UTF-8
    Codec ID : S_TEXT/UTF8
    Codec ID/Info : UTF-8 Plain Text
    Language : Russian
    Default : No
    Forced : No

    Text #3
    ID : 7
    Format : UTF-8
    Codec ID : S_TEXT/UTF8
    Codec ID/Info : UTF-8 Plain Text
    Language : English
    Default : No
    Forced : No
    Скриншоты для ознакомления

    Размер скачиваемого торрента: 2.49 GB (2674415307 Bytes)

    Легион / Legion (2010) BDRip-AVC | D, А торрент скачать бесплатно
    загрузка...
    Рейтинг →
     (голосов: 1, оценка 3/5, голосовать можно 1 раз )

    Другие торренты по теме:

  • Легион Автодата - Toyota (2010) PDF
  • Последний легион / The Last Legion (2007) BDRip-AVC от ExKinoRay
  • Легион Автодата - Toyota Camry 1996-2001 г. (2008) PDF
  • 13 Легион - Дискография (2004-2010) MP3
  • Легион-Автодата- Toyota Prius 2004-2009 г.в. (2009) PDF
  • Легион Автодата - Toyota Corona Premio. Модели 2WD 4WD 1996-2001гг. (2004) PDF
  • Легион-Автодата - Honda Fit / Jazz: Устройство, техническое обслуживание и ремонт (2007) PDF
  • Легион-Автодата - Kia Sorento (2009) PDF


    • Комментарии (0):

      Информация

      Информация

        Посетители, находящиеся в группе Гости, не могут оставлять комментарии в данной новости.

        ↓ Меню



        ↓ Опрос

        А Вы добавили сайт в закладки?
        Да
        Не


        Top 10 за месяц (Фильмы)