.
Авторизация | Регистрация
Хочешь лучшие торренты? Добавь свой email!
Добавить
» » Капитан Филлипс / Captain Phillips (2013) BDRemux 1080p от GORESEWAGE | Лицензия скачать торрент бесплатно




    Капитан Филлипс / Captain Phillips (2013) BDRemux 1080p от GORESEWAGE | Лицензия скачать торрент бесплатно

    Опубликовал: Админ | Дата: 27-02-2015, 11:10 | Просмотров: 258



    Русское название: Капитан Филлипс
    Русское название в мировом прокате: Captain Phillips
    Создали в: 2013
    Снималось в: США
    Категория жанра: триллер, драма, криминал, боевик
    Время просмотра: 02:14:04
    Перевод текста 1: Профессиональный (дублированный)
    Перевод текста 2: Профессиональный (дублированный) вставки DVO на сомалийскую речь
    Перевод текста 3: Профессиональный (двухголосый закадровый)
    Перевод текста 4: Авторский (одноголосый закадровый) А. Гаврилов
    Перевод текста 5: Любительский (одноголосый закадровый) Д. Есарев
    Перевод текста 6: Профессиональный (дублированный) Ukr
    Оригинальная аудиодорожка: English
    Субтитры: Russian (Forced, Full), Ukrainian (Forced), English (Forced, Full, SDH, SDH Colored, Commentary)
    Киностудия: Scott Rudin Productions, Michael De Luca Productions, Trigger Street Productions

    Главный режиссёр: Пол Гринграсс / Paul Greengrass

    Актеры: Том Хэнкс, Баркхад Абди, Баркхад Абдирахман, Файсал Ахмед, Махат М. Али, Майкл Чернус, Юл Васкез, Макс Мартини, Кэтрин Кинер, Крис Малки и др.

    Сюжет: В начале апреля 2009 года, близ берегов Африки, несколько сомалийских пиратов атакуют и пытаются захватить массивный контейнеровоз MV Maersk Alabama. Команда корабля активно сопротивляется и в конце концов не даёт взять себя в плен. Захватчики вынуждены ретироваться и покинуть судно на небольшом катере, прихватив с собой немолодого капитана Ричарда Филлипса…



    Sample

    Качество фильма: BDRemux 1080p (Captain Phillips 2013 BluRay 1080p AVC DTS-HD MA5.1-CHDBits)
    Контейнер: MKV
    Информация о видео кодек: MPEG-4 AVC Video
    Информация о звуке кодек: DTS-HD MA / AC3
    Информация о видео: MPEG-4 AVC Video / 24917 kbps / 1920x1080p / 23,976 fps / 16:9 / High Profile 4.1
    Информация о звуке 1: Russian / AC3 / 5.1 / 48 kHz / 640 kbps / 16-bit / Dub
    Информация о звуке 2: Russian / AC3 / 5.1 / 48 kHz / 640 kbps / 16-bit / Dub DVO
    Информация о звуке 3: Russian / AC3 / 5.1 / 48 kHz / 384 kbps / 16-bit / DVO
    Информация о звуке 4: Russian / DTS-HD MA / 5.1 / 48 kHz / 3096 kbps / 24-bit (DTS Core: 5.1 / 48 kHz / 1536 kbps / 24-bit) / AVO А. Гаврилов
    Информация о звуке 5: Russian / DTS-HD MA / 5.1 / 48 kHz / 3530 kbps / 24-bit (DTS Core: 5.1 / 48 kHz / 1536 kbps / 24-bit) / VO Д. Есарев
    Информация о звуке 6: Ukrainian / AC3 / 5.1 / 48 kHz / 640 kbps / 16-bit / Dub
    Информация о звуке 7: English / DTS-HD MA / 5.1 / 48 kHz / 2779 kbps / 24-bit (DTS Core: 5.1 / 48 kHz / 1536 kbps / 24-bit) / Original
    Информация о звуке 8: English / AC3 / 2.0 / 48 kHz / 192 kbps / 16-bit / Commentary w/ director Paul Greengrass
    Навигация по главам: да

    Дополнительная информация

    * Перевод Андрея Гаврилова доступен благодаря пользователям E180: foxlight, Nick, xerman13, пуля, Iceman, uchitel538, Nadoelo, v1111o, Daniel Rock, фёдор александрович, LAVR, Диммон, denis_mgn_1987, mitabrev, MyxAmoP, Kastro, chefchef, axl-dr, oleg-k, Эдуард, karantin66, nimph, Loki1982, furria62, Ochkarik1, luka69, olegsoleg, rydanes, KINOGON, 2vova2, _shurik_, saenwert, GKillah, bla_, Chistobaev, Roman Lee, dsk71, Savely, skibichok, SavineX78, Valen, masta, Tio, ARTYq, GaryH, kondratzx, audiolubitel, dir, Евгений_1, User, JI79, Марлон, Denis2251, Skoped, Gross1978, Splinter, Lee Ray, Водолей, 48ronin, maximus10-99.
    * Перевод Дмитрия Есарева доступен благодаря будулайроманов. Работа со звуком: Perevodman.

    Скриншоты для ознакомления

    MediaInfo
    C:/GORESEWAGE/Captain Phillips 2013 BDRemux 1080p GORESEWAGE.mkv
    General
    Unique ID : 254285040034388382719036799834236447924 (0xBF4D846DD9DC8C43B34425F14010ECB4)
    Complete name : C:/GORESEWAGE/Captain Phillips 2013 BDRemux 1080p GORESEWAGE.mkv
    Format : Matroska
    Format version : Version 4 / Version 2
    File size : 34.5 GiB
    Duration : 2h 14mn
    Overall bit rate mode : Variable
    Overall bit rate : 36.8 Mbps
    Movie name : Captain Phillips 2013 BDRemux 1080p GORESEWAGE
    Encoded date : UTC 2014-02-07 10:09:57
    Writing application : mkvmerge v6.1.0 (;Old Devil;) built on Mar 2 2013 14:32:37
    Writing library : libebml v1.3.0 libmatroska v1.4.0
    Attachment : Yes
    Video #1
    ID : 1
    Format : AVC
    Format/Info : Advanced Video Codec
    Format profile : High@L4.1
    Format settings, CABAC : Yes
    Format settings, ReFrames : 2 frames
    Codec ID : V_MPEG4/ISO/AVC
    Duration : 2h 14mn
    Bit rate mode : Variable
    Width : 1 920 pixels
    Height : 1 080 pixels
    Display aspect ratio : 16:9
    Frame rate mode : Constant
    Frame rate : 23.976 fps
    Color space : YUV
    Chroma subsampling : 4:2:0
    Bit depth : 8 bits
    Scan type : Progressive
    Title : Captain Phillips 2013 BDRemux 1080p GORESEWAGE
    Language : English
    Default : Yes
    Forced : No
    Audio #2
    ID : 2
    Format : AC-3
    Format/Info : Audio Coding 3
    Mode extension : CM (complete main)
    Format settings, Endianness : Big
    Codec ID : A_AC3
    Duration : 2h 14mn
    Bit rate mode : Constant
    Bit rate : 640 Kbps
    Channel count : 6 channels
    Channel positions : Front: L C R, Side: L R, LFE
    Sampling rate : 48.0 KHz
    Bit depth : 16 bits
    Compression mode : Lossy
    Stream size : 614 MiB (2%)
    Title : Dub
    Language : Russian
    Default : Yes
    Forced : No
    Audio #3
    ID : 3
    Format : AC-3
    Format/Info : Audio Coding 3
    Mode extension : CM (complete main)
    Format settings, Endianness : Big
    Codec ID : A_AC3
    Duration : 2h 14mn
    Bit rate mode : Constant
    Bit rate : 640 Kbps
    Channel count : 6 channels
    Channel positions : Front: L C R, Side: L R, LFE
    Sampling rate : 48.0 KHz
    Bit depth : 16 bits
    Compression mode : Lossy
    Stream size : 614 MiB (2%)
    Title : Dub DVO
    Language : Russian
    Default : No
    Forced : No
    Audio #4
    ID : 4
    Format : AC-3
    Format/Info : Audio Coding 3
    Mode extension : CM (complete main)
    Format settings, Endianness : Big
    Codec ID : A_AC3
    Duration : 2h 14mn
    Bit rate mode : Constant
    Bit rate : 384 Kbps
    Channel count : 6 channels
    Channel positions : Front: L C R, Side: L R, LFE
    Sampling rate : 48.0 KHz
    Bit depth : 16 bits
    Compression mode : Lossy
    Stream size : 368 MiB (1%)
    Title : DVO
    Language : Russian
    Default : No
    Forced : No
    Audio #5
    ID : 5
    Format : DTS
    Format/Info : Digital Theater Systems
    Format profile : MA / Core
    Mode : 16
    Format settings, Endianness : Big
    Codec ID : A_DTS
    Duration : 2h 14mn
    Bit rate mode : Variable
    Bit rate : Unknown / 1 509 Kbps
    Channel count : 6 channels
    Channel positions : Front: L C R, Side: L R, LFE
    Sampling rate : 48.0 KHz
    Bit depth : 24 bits
    Compression mode : Lossless / Lossy
    Title : AVO А. Гаврилов
    Language : Russian
    Default : No
    Forced : No
    Audio #6
    ID : 6
    Format : DTS
    Format/Info : Digital Theater Systems
    Format profile : MA / Core
    Mode : 16
    Format settings, Endianness : Big
    Codec ID : A_DTS
    Duration : 2h 14mn
    Bit rate mode : Variable
    Bit rate : Unknown / 1 509 Kbps
    Channel count : 6 channels
    Channel positions : Front: L C R, Side: L R, LFE
    Sampling rate : 48.0 KHz
    Bit depth : 24 bits
    Compression mode : Lossless / Lossy
    Title : VO Д. Есарев
    Language : Russian
    Default : No
    Forced : No
    Audio #7
    ID : 7
    Format : AC-3
    Format/Info : Audio Coding 3
    Mode extension : CM (complete main)
    Format settings, Endianness : Big
    Codec ID : A_AC3
    Duration : 2h 14mn
    Bit rate mode : Constant
    Bit rate : 640 Kbps
    Channel count : 6 channels
    Channel positions : Front: L C R, Side: L R, LFE
    Sampling rate : 48.0 KHz
    Bit depth : 16 bits
    Compression mode : Lossy
    Stream size : 614 MiB (2%)
    Title : Dub
    Language : Ukrainian
    Default : No
    Forced : No
    Audio #8
    ID : 8
    Format : DTS
    Format/Info : Digital Theater Systems
    Format profile : MA / Core
    Mode : 16
    Format settings, Endianness : Big
    Codec ID : A_DTS
    Duration : 2h 14mn
    Bit rate mode : Variable
    Bit rate : Unknown / 1 509 Kbps
    Channel count : 6 channels
    Channel positions : Front: L C R, Side: L R, LFE
    Sampling rate : 48.0 KHz
    Bit depth : 24 bits
    Compression mode : Lossless / Lossy
    Title : Original
    Language : English
    Default : No
    Forced : No
    Audio #9
    ID : 9
    Format : AC-3
    Format/Info : Audio Coding 3
    Format profile : Dolby Digital
    Mode extension : CM (complete main)
    Format settings, Endianness : Big
    Codec ID : A_AC3
    Duration : 2h 14mn
    Bit rate mode : Constant
    Bit rate : 192 Kbps
    Channel count : 2 channels
    Channel positions : Front: L R
    Sampling rate : 48.0 KHz
    Bit depth : 16 bits
    Compression mode : Lossy
    Stream size : 184 MiB (1%)
    Title : Commentary w/ director Paul Greengrass
    Language : English
    Default : No
    Forced : No
    Text #10
    ID : 10
    Format : UTF-8
    Codec ID : S_TEXT/UTF8
    Codec ID/Info : UTF-8 Plain Text
    Title : Forced
    Language : Russian
    Default : Yes
    Forced : No
    Text #11
    ID : 11
    Format : UTF-8
    Codec ID : S_TEXT/UTF8
    Codec ID/Info : UTF-8 Plain Text
    Title : Full
    Language : Russian
    Default : No
    Forced : No
    Text #12
    ID : 12
    Format : UTF-8
    Codec ID : S_TEXT/UTF8
    Codec ID/Info : UTF-8 Plain Text
    Title : Forced
    Language : Ukrainian
    Default : No
    Forced : No
    Text #13
    ID : 13
    Format : UTF-8
    Codec ID : S_TEXT/UTF8
    Codec ID/Info : UTF-8 Plain Text
    Title : Forced
    Language : English
    Default : No
    Forced : No
    Text #14
    ID : 14
    Format : UTF-8
    Codec ID : S_TEXT/UTF8
    Codec ID/Info : UTF-8 Plain Text
    Title : Full
    Language : English
    Default : No
    Forced : No
    Text #15
    ID : 15
    Format : UTF-8
    Codec ID : S_TEXT/UTF8
    Codec ID/Info : UTF-8 Plain Text
    Title : SDH
    Language : English
    Default : No
    Forced : No
    Text #16
    ID : 16
    Format : UTF-8
    Codec ID : S_TEXT/UTF8
    Codec ID/Info : UTF-8 Plain Text
    Title : SDH Colored
    Language : English
    Default : No
    Forced : No
    Text #17
    ID : 17
    Format : UTF-8
    Codec ID : S_TEXT/UTF8
    Codec ID/Info : UTF-8 Plain Text
    Title : Commentary w/ director Paul Greengrass
    Language : English
    Default : No
    Forced : No
    Menu
    00:00:00.000 : :Chapter 01
    00:09:12.927 : :Chapter 02
    00:15:30.137 : :Chapter 03
    00:22:48.742 : :Chapter 04
    00:30:11.434 : :Chapter 05
    00:39:38.876 : :Chapter 06
    00:48:01.003 : :Chapter 07
    00:58:24.751 : :Chapter 08
    01:04:36.539 : :Chapter 09
    01:13:02.836 : :Chapter 10
    01:19:14.249 : :Chapter 11
    01:25:41.261 : :Chapter 12
    01:34:14.023 : :Chapter 13
    01:41:44.598 : :Chapter 14
    01:51:32.102 : :Chapter 15
    02:02:38.851 : :Chapter 16

    Размер скачиваемого торрента: 34.49 GB (37029674163 Bytes)

    Капитан Филлипс / Captain Phillips (2013) BDRemux 1080p от GORESEWAGE | Лицензия торрент скачать бесплатно
    загрузка...
    Рейтинг →
     (голосов: 1, оценка 5/5, голосовать можно 1 раз )

    Другие торренты по теме:

  • Капитан Филлипс / Captain Phillips (2013) TS от INTERCINEMA | L1
  • Капитан Филлипс / Captain Phillips (2013) WebRip | L1 скачать через торрент бесплатно
  • Капитан Филлипс / Captain Phillips (2013) WEBRip | Звук с TS скачать через торрент бесплатно
  • Капитан Филлипс / Captain Phillips (2013) WEBRip-AVC от dReaM | Звук с TS
  • Капитан Филлипс / Captain Phillips (2013) DVDRip | Звук с TS
  • Капитан Филлипс / Captain Phillips (2013) BDRip-AVC от MediaClub | P2
  • Капитан Филлипс / Captain Phillips (2013) BDRip 720p | P2
  • Капитан Филлипс / Captain Phillips (2013) BDRip-AVC от HELLYWOOD | P2


    • Комментарии (0):

      Информация

      Информация

        Посетители, находящиеся в группе Гости, не могут оставлять комментарии в данной новости.

        ↓ Меню



        ↓ Опрос

        А Вы добавили сайт в закладки?
        Да
        Не


        Top 10 за месяц (Фильмы)