.
Авторизация | Регистрация
Хочешь лучшие торренты? Добавь свой email!
Добавить
» » Ностальгия / Nostalghia (1983) BDRemux 1080p от ExKinoRay | Лицензия скачать торрент бесплатно




    Ностальгия / Nostalghia (1983) BDRemux 1080p от ExKinoRay | Лицензия скачать торрент бесплатно

    Опубликовал: Админ | Дата: 27-02-2015, 11:10 | Просмотров: 279



    Детально о кино

    Русское название: Ностальгия
    Русское название в мировом прокате: Nostalghia
    Создали в: 1983
    Категория жанра: Драма
    Снималось в: Италия, СССР, Opera Film Produzione, Rai Due, Совинфильм
    Главный режиссер: Андрей Тарковский
    Актеры: Олег Янковский, Домициана Джордано, Эрланд Юсефсон, Патриция Террено, Делия Боккардо, Лаура Де Марчи, Милена Вукотич, Альберто Канепа, Милена Вукотич, Раффаель Ди Марио


    Сюжет фильма: Русский писатель Андрей Горчаков приезжает в Италию в поисках биографических следов крепостного музыканта Павла Сосновского, некогда посетившего эти места. Поиски примет эмиграционных дней жизни музыканта - это и есть то, что связывает Горчакова c переводчицей Юдженией, беспомощно пытающейся понять причину тоски русского друга посредством томика стихов Арсения Тарковского. Вскоре Горчаков начинает осознавать, что история музыканта - это отчасти и его собственная история: в Италии он чувствует себя чужим, но и вернуться домой уже не может. Героем овладевает тягостное оцепенение, тоска по родине переходит в болезнь...





    Файл

    Качество фильма: Blu-Ray Remux (1080p)
    Информация о видео: MPEG-4 AVC, 36903 Кбит/с, 1920x1080, 23.976 кадр/с
    Информация о звуке: Русский (AC3, 2 ch, 192 Кбит/с), (LPCM, 2 ch, 2304 Кбит/с), итальянский (LPCM, 2 ch, 2304 Кбит/с)
    Размер скачиваемого торрента: 34.9 ГБ
    Время просмотра: 2:05:39
    Перевод текста: Профессиональный одноголосый закадровый
    Субтитры: Русские, английские



    Аудио1: Русский (AC3, 2 ch, 192 Кбит/с) - Профессиональный одноголосый закадровый - Ruscico (Лицензия ДВД)
    Аудио2: Русский (AC3, 2 ch, 192 Кбит/с) - Профессиональный одноголосый закадровый - Fox Lorber
    Аудио3: Русский (AC3, 2 ch, 192 Кбит/с) - Профессиональный одноголосый закадровый - Рудольф Панков
    Аудио4: Итальянский - Русский (LPCM, 2 ch, 2304 Кбит/с)
    Сохранены оригинальные чаптеры как на Blu-Ray

    За исходник, большое спасибо HDClub
    За предоставленную дорогу с озвучкой Рудольфа Панкова, огромное спасибо Skazhutin



    Инфо-файл

    Общее
    Уникальный идентификатор : 182918084213929426795588871459822845530 (0x899CBDD7E8A071EAA00C9BC197E73E5A)
    Полное имя : C:DownloadsNostalghia.1983.BDRemux.(1080p).ExKinoRay.mkv
    Формат : Matroska
    Версия формата : Version 2
    Размер файла : 34,9 Гбайт
    Продолжительность : 2 ч. 5 м.
    Общий поток : 39,8 Мбит/сек
    Название фильма : Ностальгия.1983.Сборка: ollan
    Дата кодирования : UTC 2014-02-07 16:23:05
    Программа кодирования : mkvmerge v5.6.0 (;Kenya Kane;) built on May 27 2012 16:44:04
    Библиотека кодирования : libebml v1.2.3 libmatroska v1.3.0

    Видео
    Идентификатор : 1
    Формат : AVC
    Формат/Информация : Advanced Video Codec
    Профиль формата : High@L4.1
    Параметр CABAC формата : Да
    Параметр ReFrames формата : 4 кадра
    Параметр GOP формата : M=3, N=24
    Идентификатор кодека : V_MPEG4/ISO/AVC
    Продолжительность : 2 ч. 5 м.
    Вид битрейта : Постоянный
    Номинальный битрейт : 37,0 Мбит/сек
    Ширина : 1920 пикселей
    Высота : 1080 пикселей
    Соотношение сторон : 16:9
    Режим частоты кадров : Постоянный
    Частота кадров : 23,976 кадра/сек
    Стандарт вещания : NTSC
    Цветовое пространство : YUV
    Субдискретизация насыщенности : 4:2:0
    Битовая глубина : 8 бит
    Тип развёртки : Прогрессивная
    Бит/(Пиксели*Кадры) : 0.744
    Default : Да
    Forced : Нет
    Основные цвета : BT.709
    Характеристики трансфера : BT.709
    Коэффициенты матрицы : BT.709

    Аудио #1
    Идентификатор : 2
    Формат : AC-3
    Формат/Информация : Audio Coding 3
    Расширение режима : CM (complete main)
    Параметр Endianness формата : Big
    Идентификатор кодека : A_AC3
    Продолжительность : 2 ч. 5 м.
    Вид битрейта : Постоянный
    Битрейт : 192 Кбит/сек
    Каналы : 2 канала
    Расположение каналов : Front: L R
    Частота : 48,0 КГц
    Битовая глубина : 16 бит
    Метод сжатия : С потерями
    Размер потока : 173 Мбайт (0%)
    Заголовок : VO_Ruscico
    Язык : Russian
    Default : Да
    Forced : Нет

    Аудио #2
    Идентификатор : 3
    Формат : AC-3
    Формат/Информация : Audio Coding 3
    Расширение режима : CM (complete main)
    Параметр Endianness формата : Big
    Идентификатор кодека : A_AC3
    Продолжительность : 2 ч. 5 м.
    Вид битрейта : Постоянный
    Битрейт : 192 Кбит/сек
    Каналы : 2 канала
    Расположение каналов : Front: L R
    Частота : 48,0 КГц
    Битовая глубина : 16 бит
    Метод сжатия : С потерями
    Размер потока : 173 Мбайт (0%)
    Заголовок : VO_Fox_Lorber
    Язык : Russian
    Default : Нет
    Forced : Нет

    Аудио #3
    Идентификатор : 4
    Формат : AC-3
    Формат/Информация : Audio Coding 3
    Расширение режима : CM (complete main)
    Параметр Endianness формата : Big
    Идентификатор кодека : A_AC3
    Продолжительность : 2 ч. 5 м.
    Вид битрейта : Постоянный
    Битрейт : 192 Кбит/сек
    Каналы : 2 канала
    Расположение каналов : Front: L R
    Частота : 48,0 КГц
    Битовая глубина : 16 бит
    Метод сжатия : С потерями
    Размер потока : 173 Мбайт (0%)
    Заголовок : VO_Pankov
    Язык : Russian
    Default : Нет
    Forced : Нет

    Аудио #4
    Идентификатор : 5
    Формат : PCM
    Идентификатор кодека : A_PCM/INT/LIT
    Продолжительность : 2 ч. 5 м.
    Вид битрейта : Постоянный
    Каналы : 2 канала
    Частота : 48,0 КГц
    Битовая глубина : 24 бит
    Заголовок : Italian, Russian
    Default : Нет
    Forced : Нет

    Текст #1
    Идентификатор : 6
    Формат : UTF-8
    Идентификатор кодека : S_TEXT/UTF8
    Идентификатор кодека/Информация : UTF-8 Plain Text
    Заголовок : DVD
    Язык : Russian
    Default : Нет
    Forced : Нет

    Текст #2
    Идентификатор : 7
    Формат : UTF-8
    Идентификатор кодека : S_TEXT/UTF8
    Идентификатор кодека/Информация : UTF-8 Plain Text
    Заголовок : Full
    Язык : English
    Default : Нет
    Forced : Нет

    Меню
    00:00:00.000 : :Chapter 01
    00:12:39.425 : :Chapter 02
    00:25:36.868 : :Chapter 03
    00:35:14.779 : :Chapter 04
    00:46:36.376 : :Chapter 05
    01:00:41.596 : :Chapter 06
    01:11:56.520 : :Chapter 07
    01:21:13.243 : :Chapter 08
    01:35:40.192 : :Chapter 09
    01:48:16.573 : :Chapter 10
    02:05:50.125 : :Chapter 11




    Скриншоты для ознакомления







    Релиз подготовил: Сборка:
    Залил: ollan
    Размер скачиваемого торрента: 34.90 GB (37470531687 Bytes)

    Ностальгия / Nostalghia (1983) BDRemux 1080p от ExKinoRay | Лицензия торрент скачать бесплатно
    загрузка...
    Рейтинг →
     (голосов: 1, оценка 5/5, голосовать можно 1 раз )

    Другие торренты по теме:

  • Ностальгия / Nostalghia (1983) BDRip 720p от MediaClub | Лицензия скачать через торрент бесплатно
  • Ностальгия / Nostalghia (1983) BDRip 720p от Leonardo and Scarabey скачать через торрент бесплатно
  • Потерянный рай. Ностальгия по Союзу (2014) SATRip
  • Мартын Ажуров - Ностальгия
  • Александр Гум - Ностальгия скачать через торрент бесплатно
  • Группа Этап - Ностальгия
  • Сборник - Диско ностальгия 80-90x Ретро FM (2015) MP3
  • Ностальгия по папочке / Daddy Nostalgie (1990) DVDRip | P


    • Комментарии (0):

      Информация

      Информация

        Посетители, находящиеся в группе Гости, не могут оставлять комментарии в данной новости.

        ↓ Меню



        ↓ Опрос

        А Вы добавили сайт в закладки?
        Да
        Не


        Top 10 за месяц (Фильмы)