.
Авторизация | Регистрация
Хочешь лучшие торренты? Добавь свой email!
Добавить
» » Белоснежка и охотник / Snow White And The Huntsman (2012) BDRip 1080p от GORESEWAGE | Extended Cut скачать торрент бесплатно




    Белоснежка и охотник / Snow White And The Huntsman (2012) BDRip 1080p от GORESEWAGE | Extended Cut скачать торрент бесплатно

    Опубликовал: Админ | Дата: 27-02-2015, 11:10 | Просмотров: 226



    Русское название: Белоснежка и охотник
    Русское название в мировом прокате: Snow White And The Huntsman
    Создали в: 2012
    Снималось в: США
    Категория жанра: фэнтези, боевик, драма, приключения
    Время просмотра: 02:11:33
    Перевод текста 1: Профессиональный (дублированный)
    Перевод текста 2: Авторский (одноголосый закадровый) В. Горчаков
    Перевод текста 3: Авторский (одноголосый закадровый) Ю. Сербин
    Перевод текста 4: Любительский (одноголосый закадровый) zamez
    Оригинальная аудиодорожка: English
    Субтитры: Russian (Forced Voronine, Full BD, Full Voronine, Full Анастасия Кисиленко (Medveditsa)), English (Full, Full i, SDH)
    Киностудия: Roth Films, Universal Pictures

    Главный режиссёр: Руперт Сандерс / Rupert Sanders

    Актеры: Кристен Стюарт, Крис Хемсворт, Шарлиз Терон, Сэм Клафлин, Сэм Спруэлл, Иэн МакШейн, Боб Хоскинс, Рэй Уинстон, Ник Фрост, Эдди Марсан и др.

    Сюжет: Тьма приближается. Она прячется в лесах, спускается с гор, застилает небо. Никто не укроется от магического зеркала Королевы, живущей в неприступном замке, охраняемом бесчисленной армией. Но над Белоснежкой злые чары не властны. И тогда Королева отправляет Охотника, чтобы он принес ей сердце соперницы. Но очарованный Белоснежкой, он встает на её сторону. Грядёт великая битва. Лишь одна будет править.



    Sample

    Качество фильма: BDRip 1080p (HDMaNiAcS)
    Контейнер: MKV
    Информация о видео кодек: MPEG-4 AVC Video
    Информация о звуке кодек: DTS / AC3
    Информация о видео: MPEG-4 AVC Video / 14250 kbps / 1920x816p / 23,976 fps / 2.35:1 / High Profile 4.1
    Информация о звуке 1: Russian / AC3 / 5.1 / 48 kHz / 448 kbps / 16-bit / Dub
    Информация о звуке 2: Russian / DTS / 5.1 / 48 kHz / 1536 kbps / 24-bit / AVO В. Горчаков
    Информация о звуке 3: Russian / DTS / 5.1 / 48 kHz / 1536 kbps / 24-bit / AVO Ю. Сербин
    Информация о звуке 4: Russian / AC3 / 5.1 / 48 kHz / 448 kbps / 16-bit / zamez
    Информация о звуке 5: English / DTS / 5.1 / 48 kHz / 1536 kbps / 24-bit / Original
    Информация о звуке 6: English / AC3 / 2.0 / 48 kHz / 192 kbps / 16-bit / Commentary w/ director Rupert Sanders, visual effects supervisor Cedric Nicolas-Troyan co-editor Neil Smith
    Навигация по главам: да

    Дополнительная информация

    * Перевод Василия Горчакова доступен благодаря пользователям HDTracker: SavineX, Джосс, kinobbk, Jiraya87, Letyoha3, feldeger, Brown15, Role, Диммон, Xerman13, Dr. Destructo, Schmulke, vadamk, Atzki RuLon, denis_mgn_1987, nimph, MeGUI, эвоки.
    * Перевод Юрия Сербина доступен благодаря пользователям форума E180.
    * Перевод zamez доступен благодаря shevron Вячеславу zamez.
    * За русские субтитры №4 thx Анастасия Кисиленко (Medveditsa).

    Скриншоты для ознакомления

    MediaInfo
    C:/GORESEWAGE/Snow White And The Huntsman 2012 Extended Cut BDRip 1080p GORESEWAGE.mkv
    General
    Unique ID : 211618741027404240658956411497705852946 (0x9F344979BCDCC4D49DD5D3435CE35012)
    Complete name : C:/GORESEWAGE/Snow White And The Huntsman 2012 Extended Cut BDRip 1080p GORESEWAGE.mkv
    Format : Matroska
    Format version : Version 4 / Version 2
    File size : 18.3 GiB
    Duration : 2h 11mn
    Overall bit rate : 19.9 Mbps
    Movie name : Snow White And The Huntsman 2012 Extended Cut BDRip 1080p GORESEWAGE
    Encoded date : UTC 2014-02-07 19:51:20
    Writing application : mkvmerge v6.1.0 (;Old Devil;) built on Mar 2 2013 14:32:37
    Writing library : libebml v1.3.0 libmatroska v1.4.0
    Attachment : Yes
    Video #1
    ID : 1
    Format : AVC
    Format/Info : Advanced Video Codec
    Format profile : High@L4.1
    Format settings, CABAC : Yes
    Format settings, ReFrames : 5 frames
    Codec ID : V_MPEG4/ISO/AVC
    Duration : 2h 11mn
    Bit rate : 14.3 Mbps
    Width : 1 920 pixels
    Height : 816 pixels
    Display aspect ratio : 2.35:1
    Frame rate mode : Constant
    Frame rate : 23.976 fps
    Color space : YUV
    Chroma subsampling : 4:2:0
    Bit depth : 8 bits
    Scan type : Progressive
    Bits/(Pixel*Frame) : 0.379
    Stream size : 12.7 GiB (70%)
    Title : Snow White And The Huntsman 2012 Extended Cut BDRip 1080p GORESEWAGE
    Writing library : x264 core 125 r2208 d9d2288
    Encoding settings : cabac=1 / ref=5 / deblock=1:-3:-3 / analyse=0x3:0x113 / me=tesa / subme=11 / psy=1 / psy_rd=0.97:0.03 / mixed_ref=1 / me_range=24 / chroma_me=1 / trellis=2 / 8x8dct=1 / cqm=0 / deadzone=21,11 / fast_pskip=1 / chroma_qp_offset=-3 / threads=12 / lookahead_threads=2 / sliced_threads=0 / nr=0 / decimate=1 / interlaced=0 / bluray_compat=0 / constrained_intra=0 / bframes=8 / b_pyramid=2 / b_adapt=2 / b_bias=0 / direct=3 / weightb=1 / open_gop=0 / weightp=2 / keyint=240 / keyint_min=23 / scenecut=40 / intra_refresh=0 / rc=2pass / mbtree=0 / bitrate=14250 / ratetol=1.0 / qcomp=0.65 / qpmin=10 / qpmax=69 / qpstep=4 / cplxblur=20.0 / qblur=0.5 / ip_ratio=1.40 / pb_ratio=1.30 / aq=2:0.90
    Language : English
    Default : Yes
    Forced : No
    Audio #2
    ID : 2
    Format : AC-3
    Format/Info : Audio Coding 3
    Mode extension : CM (complete main)
    Format settings, Endianness : Big
    Codec ID : A_AC3
    Duration : 2h 11mn
    Bit rate mode : Constant
    Bit rate : 448 Kbps
    Channel count : 6 channels
    Channel positions : Front: L C R, Side: L R, LFE
    Sampling rate : 48.0 KHz
    Bit depth : 16 bits
    Compression mode : Lossy
    Stream size : 422 MiB (2%)
    Title : Dub
    Language : Russian
    Default : Yes
    Forced : No
    Audio #3
    ID : 3
    Format : DTS
    Format/Info : Digital Theater Systems
    Mode : 16
    Format settings, Endianness : Big
    Codec ID : A_DTS
    Duration : 2h 11mn
    Bit rate mode : Constant
    Bit rate : 1 509 Kbps
    Channel count : 6 channels
    Channel positions : Front: L C R, Side: L R, LFE
    Sampling rate : 48.0 KHz
    Bit depth : 24 bits
    Compression mode : Lossy
    Stream size : 1.39 GiB (8%)
    Title : AVO В. Горчаков
    Language : Russian
    Default : No
    Forced : No
    Audio #4
    ID : 4
    Format : DTS
    Format/Info : Digital Theater Systems
    Mode : 16
    Format settings, Endianness : Big
    Codec ID : A_DTS
    Duration : 2h 11mn
    Bit rate mode : Constant
    Bit rate : 1 509 Kbps
    Channel count : 6 channels
    Channel positions : Front: L C R, Side: L R, LFE
    Sampling rate : 48.0 KHz
    Bit depth : 24 bits
    Compression mode : Lossy
    Stream size : 1.39 GiB (8%)
    Title : AVO Ю. Сербин
    Language : Russian
    Default : No
    Forced : No
    Audio #5
    ID : 5
    Format : AC-3
    Format/Info : Audio Coding 3
    Mode extension : CM (complete main)
    Format settings, Endianness : Big
    Codec ID : A_AC3
    Duration : 2h 11mn
    Bit rate mode : Constant
    Bit rate : 448 Kbps
    Channel count : 6 channels
    Channel positions : Front: L C R, Side: L R, LFE
    Sampling rate : 48.0 KHz
    Bit depth : 16 bits
    Compression mode : Lossy
    Stream size : 422 MiB (2%)
    Title : VO zamez
    Language : Russian
    Default : No
    Forced : No
    Audio #6
    ID : 6
    Format : DTS
    Format/Info : Digital Theater Systems
    Mode : 16
    Format settings, Endianness : Big
    Codec ID : A_DTS
    Duration : 2h 11mn
    Bit rate mode : Constant
    Bit rate : 1 509 Kbps
    Channel count : 6 channels
    Channel positions : Front: L C R, Side: L R, LFE
    Sampling rate : 48.0 KHz
    Bit depth : 24 bits
    Compression mode : Lossy
    Stream size : 1.39 GiB (8%)
    Title : Original
    Language : English
    Default : No
    Forced : No
    Audio #7
    ID : 7
    Format : AC-3
    Format/Info : Audio Coding 3
    Format profile : Dolby Digital
    Mode extension : CM (complete main)
    Format settings, Endianness : Big
    Codec ID : A_AC3
    Duration : 2h 11mn
    Bit rate mode : Constant
    Bit rate : 192 Kbps
    Channel count : 2 channels
    Channel positions : Front: L R
    Sampling rate : 48.0 KHz
    Bit depth : 16 bits
    Compression mode : Lossy
    Stream size : 181 MiB (1%)
    Title : Commentary w/ director Rupert Sanders, visual effects supervisor Cedric Nicolas-Troyan co-editor Neil Smith
    Language : English
    Default : No
    Forced : No
    Text #8
    ID : 8
    Format : UTF-8
    Codec ID : S_TEXT/UTF8
    Codec ID/Info : UTF-8 Plain Text
    Title : Forced Voronine
    Language : Russian
    Default : Yes
    Forced : No
    Text #9
    ID : 9
    Format : UTF-8
    Codec ID : S_TEXT/UTF8
    Codec ID/Info : UTF-8 Plain Text
    Title : Full BD
    Language : Russian
    Default : No
    Forced : No
    Text #10
    ID : 10
    Format : UTF-8
    Codec ID : S_TEXT/UTF8
    Codec ID/Info : UTF-8 Plain Text
    Title : Full Voronine
    Language : Russian
    Default : No
    Forced : No
    Text #11
    ID : 11
    Format : UTF-8
    Codec ID : S_TEXT/UTF8
    Codec ID/Info : UTF-8 Plain Text
    Title : Full Анастасия Кисиленко (Medveditsa)
    Language : Russian
    Default : No
    Forced : No
    Text #12
    ID : 12
    Format : UTF-8
    Codec ID : S_TEXT/UTF8
    Codec ID/Info : UTF-8 Plain Text
    Title : Full
    Language : English
    Default : No
    Forced : No
    Text #13
    ID : 13
    Format : UTF-8
    Codec ID : S_TEXT/UTF8
    Codec ID/Info : UTF-8 Plain Text
    Title : Full i
    Language : English
    Default : No
    Forced : No
    Text #14
    ID : 14
    Format : UTF-8
    Codec ID : S_TEXT/UTF8
    Codec ID/Info : UTF-8 Plain Text
    Title : SDH
    Language : English
    Default : No
    Forced : No
    Menu
    00:00:00.000 : en:Chapter 1
    00:05:05.055 : en:Chapter 2
    00:10:26.793 : en:Chapter 3
    00:19:48.854 : en:Chapter 4
    00:27:46.456 : en:Chapter 5
    00:32:40.458 : en:Chapter 6
    00:38:04.490 : en:Chapter 7
    00:44:02.098 : en:Chapter 8
    00:51:08.649 : en:Chapter 9
    00:58:17.869 : en:Chapter 10
    01:02:08.558 : en:Chapter 11
    01:08:57.967 : en:Chapter 12
    01:13:36.537 : en:Chapter 13
    01:16:59.073 : en:Chapter 14
    01:26:57.003 : en:Chapter 15
    01:36:30.993 : en:Chapter 16
    01:43:37.795 : en:Chapter 17
    01:49:51.460 : en:Chapter 18
    01:53:44.734 : en:Chapter 19
    02:01:50.094 : en:Chapter 20

    Размер скачиваемого торрента: 18.25 GB (19598281491 Bytes)

    Белоснежка и охотник / Snow White And The Huntsman (2012) BDRip 1080p от GORESEWAGE | Extended Cut торрент скачать бесплатно
    загрузка...
    Рейтинг →
     (голосов: 1, оценка 4/5, голосовать можно 1 раз )

    Другие торренты по теме:

  • Белоснежка и семь гномов / Snow White and the Seven Dwarfs (1937) BDRip 720p от HQ-ViDEO
  • Белоснежка и семь гномов / Snow White and the Seven Dwarfs (1937) BDRip-AVC от 0ptimus | D
  • Белоснежка и охотник / Snow White and the Huntsman (2012) BDRip 720p | D | Расширенная версия
  • Белоснежка и охотник / Snow White And The Huntsman (2012) BDRemux 1080p от GORESEWAGE | Extended Cut скачать через торрент бесплатно
  • Белоснежка и охотник / Snow White And The Huntsman (2012) BDRip 1080p | Extended | D, A
  • Белоснежка и охотник / Snow White and the Huntsman (2012) BDRip 720p от Leonardo and Scarabey | Лицензия | Расширенная версия скачать через торрент бесплатно
  • Белоснежка и семь гномов / Snow White and the Seven Dwarfs (1937) BDRip 720p | 60 fps скачать через торрент бесплатно
  • Белоснежка и охотник / Snow White and the Huntsman


    • Комментарии (0):

      Информация

      Информация

        Посетители, находящиеся в группе Гости, не могут оставлять комментарии в данной новости.

        ↓ Меню



        ↓ Опрос

        А Вы добавили сайт в закладки?
        Да
        Не


        Top 10 за месяц (Фильмы)