.
Авторизация | Регистрация
Хочешь лучшие торренты? Добавь свой email!
Добавить
» » Дом войны / Warhouse / Armistice (2013) WEB-DL 720p от CINEMANIA | НТВ скачать торрент бесплатно




    Дом войны / Warhouse / Armistice (2013) WEB-DL 720p от CINEMANIA | НТВ скачать торрент бесплатно

    Опубликовал: Админ | Дата: 27-02-2015, 11:10 | Просмотров: 268



    Детально о кино
    Русское название: Дом войны
    Русское название в мировом прокате: Warhouse / Armistice
    Создали в: 2013
    Категория жанра: ужасы, триллер
    Главный режиссер: Люк Мэсси
    Актеры: Джозеф Морган, Мэтт Райан, Уильям Тротон, Аль Уивер

    Сюжет фильма:
    Однажды Эй Джи Бад, служащий на флоте Ее Величества, очнулся в совершенно незнакомом месте – доме, из которого невозможно выбраться. День за днем Бад должен защищать свою жизнь от странного монстра, появляющегося в доме и стремящегося убить моряка. Этому кошмару нет конца и края: двери и окна плотно закрыты, сквозь стены невозможно пробиться, и дом является большой просторной тюремной камерой для узников, обреченных на пожизненное заключение.

    Обыскивая это странное место, Бад натыкается на интересную находку – дневник предыдущего пленника дома, решившего оставить заметки для следующего, кому не повезет попасть сюда. Как и Бад, тот человек постоянно пытался выбраться из дома, но терпел поражение. Как и Бад, он ежедневно вынужден был драться с чудовищем и спасать свою жизнь ценой невероятных усилий. Казалось бы, он не может рассказать Баду ничего нового. Но кто знает, возможно, этот дневник поможет Баду выбраться из дома войны или хотя бы понять, что в нем происходит...



    Снималось в: Великобритания
    Время просмотра: 01:20:46
    Тип перевода: Профессиональное (двухголосое) Нтв

    Файл
    Тип видео: MKV
    Качество фильма: WEB-DL 720p HD4FUN
    Информация о видео: 4017 kb/s, 1280x494
    Информация о звуке: Russian: AC3, 192 kb/s (2 ch) / English: AC3, 384 kb/s (6 ch)
    Субтитры: English
    Дополнительно: Сохранены оригинальные чаптеры как на Blu-Ray
    Размер скачиваемого торрента: 2.64 GB
    Скачать: Сэмпл

    Релиз группы:




    NFO
    Общее
    Warhouse.2013.WEB-DL.720p.CINEMANIA.mkv
    Формат : Matroska
    Версия формата : Version 4 / Version 2
    Размер файла : 2,64 Гбайт
    Продолжительность : 1 ч. 20 м.
    Общий поток : 4686 Кбит/сек
    Название фильма : Release Group CINEMANIA
    Дата кодирования : UTC 2014-02-07 20:59:41
    Программа кодирования : mkvmerge v6.7.0 (;Back to the Ground;) 64bit built on Jan 8 2014 15:10:52
    Библиотека кодирования : libebml v1.3.0 libmatroska v1.4.1

    Видео
    Идентификатор : 1
    Формат : AVC
    Формат/Информация : Advanced Video Codec
    Профиль формата : Main@L3.1
    Параметр CABAC формата : Нет
    Параметр ReFrames формата : 2 кадра
    Идентификатор кодека : V_MPEG4/ISO/AVC
    Продолжительность : 1 ч. 20 м.
    Битрейт : 4017 Кбит/сек
    Ширина : 1280 пикселей
    Высота : 494 пикселя
    Соотношение сторон : 2,591
    Режим частоты кадров : Постоянный
    Частота кадров : 23,976 кадра/сек
    Цветовое пространство : YUV
    Субдискретизация насыщенности : 4:2:0
    Битовая глубина : 8 бит
    Тип развёртки : Прогрессивная
    Бит/(Пиксели*Кадры) : 0.265
    Размер потока : 2,27 Гбайт (86%)
    Заголовок : Release Group CINEMANIA
    Язык : English
    Default : Да
    Forced : Нет
    Основные цвета : BT.709
    Характеристики трансфера : BT.709
    Коэффициенты матрицы : BT.709

    Аудио #1
    Идентификатор : 2
    Формат : AC-3
    Формат/Информация : Audio Coding 3
    Расширение режима : CM (complete main)
    Параметр Endianness формата : Big
    Идентификатор кодека : A_AC3
    Продолжительность : 1 ч. 20 м.
    Вид битрейта : Постоянный
    Битрейт : 192 Кбит/сек
    Каналы : 2 канала
    Расположение каналов : Front: L R
    Частота : 48,0 КГц
    Битовая глубина : 16 бит
    Метод сжатия : С потерями
    Размер потока : 111 Мбайт (4%)
    Заголовок : Нтв
    Язык : Russian
    Default : Да
    Forced : Да

    Аудио #2
    Идентификатор : 3
    Формат : AC-3
    Формат/Информация : Audio Coding 3
    Расширение режима : CM (complete main)
    Параметр Endianness формата : Big
    Идентификатор кодека : A_AC3
    Продолжительность : 1 ч. 20 м.
    Вид битрейта : Постоянный
    Битрейт : 384 Кбит/сек
    Каналы : 6 каналов
    Расположение каналов : Front: L C R, Side: L R, LFE
    Частота : 48,0 КГц
    Битовая глубина : 16 бит
    Метод сжатия : С потерями
    Размер потока : 222 Мбайт (8%)
    Язык : English
    Default : Нет
    Forced : Нет

    Текст
    Идентификатор : 4
    Формат : UTF-8
    Идентификатор кодека : S_TEXT/UTF8
    Идентификатор кодека/Информация : UTF-8 Plain Text
    Язык : English
    Default : Нет
    Forced : Нет

    Меню
    00:00:00.000 : en:1
    00:07:49.000 : en:2
    00:16:00.000 : en:3
    00:22:53.000 : en:4
    00:31:15.000 : en:5
    00:38:55.000 : en:6
    00:46:21.000 : en:7
    00:54:17.000 : en:8
    01:00:06.000 : en:9
    01:05:56.000 : en:10
    01:10:21.000 : en:11
    01:15:18.000 : en:12

    Залил: DGEKIGAN
    Размер скачиваемого торрента: 2.64 GB (2839003387 Bytes)

    Дом войны / Warhouse / Armistice (2013) WEB-DL 720p от CINEMANIA | НТВ торрент скачать бесплатно
    загрузка...
    Рейтинг →
     (голосов: 1, оценка 3/5, голосовать можно 1 раз )

    Другие торренты по теме:

  • Дом войны / Warhouse (2012) SATRip от ClubTorrent | P2
  • Дом войны / Warhouse (2013) WEB-DLRip | НТВ
  • Дом войны / Warhouse (2012) WEB-DLRip | НТВ
  • Дом войны / Warhouse / Armistice (2013) WEB-DLRip-AVC | НТВ


    • Комментарии (0):

      Информация

      Информация

        Посетители, находящиеся в группе Гости, не могут оставлять комментарии в данной новости.

        ↓ Меню



        ↓ Опрос

        А Вы добавили сайт в закладки?
        Да
        Не


        Top 10 за месяц (Фильмы)