.
Авторизация | Регистрация
Хочешь лучшие торренты? Добавь свой email!
Добавить
» » Война миров Z / World War Z (2013) BDRip 720p от GORESEWAGE | Unrated Cut скачать через торрент бесплатно




    Война миров Z / World War Z (2013) BDRip 720p от GORESEWAGE | Unrated Cut скачать через торрент бесплатно

    Опубликовал: Админ | Дата: 27-02-2015, 11:10 | Просмотров: 251



    Русское название: Война миров Z
    Русское название в мировом прокате: World War Z
    Создали в: 2013
    Снималось в: США, Мальта
    Категория жанра: ужасы, фантастика, боевик, триллер, приключения
    Время просмотра: 02:03:03
    Перевод текста 1: Профессиональный (дублированный) вставки альтернативного дубляжа на расширенные сцены
    Перевод текста 2: Профессиональный (дублированный) Альтернативный
    Перевод текста 3: Авторский (одноголосый закадровый) А. Гаврилов
    Перевод текста 4: Авторский (одноголосый закадровый) Ю. Живов
    Перевод текста 5: Авторский (одноголосый закадровый) Ю. Сербин
    Перевод текста 6: Авторский (одноголосый закадровый) А. Дольский
    Перевод текста 7: Любительский (одноголосый закадровый) Andi
    Оригинальная аудиодорожка: Английская
    Субтитры: Russian (Forced, Full Notabenoid, Full Unknown, Full Анастасия Кузнецова), English (Forced, Full, Full i, SDH, SDH Colored)
    Киностудия: Paramount Pictures, Skydance Productions, Hemisphere Media Capital

    Главный режиссёр: Марк Форстер / Marc Forster

    Актеры: Брэд Питт, Мирей Инос, Даниэла Картес, Джеймс Бэдж Дэйл, Люди Букен, Мэттью Фокс, Фана Мокоэна, Дэвид Морс, Элиес Габел, Питер Капальди и др.

    Сюжет: Сотрудник ООН Джерри Лэйн наперегонки со временем пытается остановить заражение, способное полностью истребить человечество.



    Sample

    Качество фильма: BDRip 720p (NiP)
    Контейнер: MKV
    Информация о видео кодек: MPEG-4 AVC Video
    Информация о звуке кодек: DTS / AC3
    Информация о видео: MPEG-4 AVC Video / 6000 kbps / 1280x534p / 23,976 fps / 2.40:1 / High Profile 4.1
    Информация о звуке 1: Russian / DTS / 5.1 / 48 kHz / 1536 kbps / 24-bit / Dub Dub Alternative
    Информация о звуке 2: Russian / AC3 / 5.1 / 48 kHz / 448 kbps / 16-bit / Dub Alternative
    Информация о звуке 3: Russian / DTS / 5.1 / 48 kHz / 1536 kbps / 24-bit / AVO А. Гаврилов
    Информация о звуке 4: Russian / DTS / 5.1 / 48 kHz / 1536 kbps / 24-bit / AVO Ю. Живов
    Информация о звуке 5: Russian / DTS / 5.1 / 48 kHz / 1536 kbps / 24-bit / AVO Ю. Сербин
    Информация о звуке 6: Russian / DTS / 5.1 / 48 kHz / 1536 kbps / 24-bit / AVO А. Дольский
    Информация о звуке 7: Russian / DTS / 5.1 / 48 kHz / 1536 kbps / 16-bit / VO Andi
    Информация о звуке 8: English / DTS / 5.1 / 48 kHz / 1536 kbps / 24-bit / Original
    Информация о звуке 9: English / AC3 / 5.1 / 48 kHz / 640 kbps / 16-bit / Deion
    Навигация по главам: да

    Дополнительная информация

    * За дорогу №1 thx Sergesha.
    * Перевод Андрея Гаврилова доступен благодаря пользователям HDTracker: SavineX, dunhill20, Chistobaev, lexal, carter64, KpucTo161, Pain_70, shitman82, Tehnar, Wolf_Larsen, wooky3, Диммон, feldeger, Brown15, Guyver, fly32, hulahup, karantin66, nimph, Skibichok, rydanes, Role, Xerman13, ZeRoNe, therox, edsz, -Джосс-, Denis2251, друг feldegerа, TvarYuri, _MyxAmoP_, chernila, v111o, Rolly Tyler, v111o, Xerman13, rydanes.
    * Перевод Юрия Живова доступен благодаря пользователям форума E180.
    * Перевод Юрия Сербина доступен благодаря пользователям HDClub: igrok2012, IvAlien, tambov68, denismgn1987, Luka69, Andresoff, savex, Hirurg, fen, iKazar, Kirillhome, storm_vv, CinemaHD, Max_U, simonov_vs, dr_akula68, Rushmore, rivaspb, hardkatok, zlodei24, RAUL, gafur. Работа со звуком: dsk71.
    * Перевод Андрея Дольского доступен благодаря пользователю HDTracker: MeGUI.
    * За дорогу №7 thx Andi.
    * За русские сабы №4 thx Анастасия Кузнецова, VovaZ Экзот.

    Скриншоты для ознакомления


    MediaInfo
    C:/GORESEWAGE/World War Z 2013 Unrated Cut BDRip 720p GORESEWAGE.mkv
    General
    Unique ID : 180138530610802328095243939496928122524 (0x87856B452A45CBDA8858230E2232969C)
    Complete name : C:/GORESEWAGE/World War Z 2013 Unrated Cut BDRip 720p GORESEWAGE.mkv
    Format : Matroska
    Format version : Version 4 / Version 2
    File size : 15.2 GiB
    Duration : 2h 3mn
    Overall bit rate : 17.7 Mbps
    Movie name : World War Z 2013 Unrated Cut BDRip 720p GORESEWAGE
    Encoded date : UTC 2014-02-06 10:09:49
    Writing application : mkvmerge v6.1.0 (;Old Devil;) built on Mar 2 2013 14:32:37
    Writing library : libebml v1.3.0 libmatroska v1.4.0
    Attachment : Yes
    Video #1
    ID : 1
    Format : AVC
    Format/Info : Advanced Video Codec
    Format profile : High@L4.1
    Format settings, CABAC : Yes
    Format settings, ReFrames : 12 frames
    Codec ID : V_MPEG4/ISO/AVC
    Duration : 2h 3mn
    Bit rate : 5 657 Kbps
    Nominal bit rate : 6 000 Kbps
    Width : 1 280 pixels
    Height : 534 pixels
    Display aspect ratio : 2.40:1
    Frame rate mode : Constant
    Frame rate : 23.976 fps
    Color space : YUV
    Chroma subsampling : 4:2:0
    Bit depth : 8 bits
    Scan type : Progressive
    Bits/(Pixel*Frame) : 0.345
    Stream size : 4.86 GiB (32%)
    Title : World War Z 2013 Unrated Cut BDRip 720p GORESEWAGE
    Writing library : x264 core 138 r2358kMod 9e941d1
    Encoding settings : cabac=1 / ref=12 / deblock=1:-3:-3 / analyse=0x3:0x133 / me=esa / subme=11 / psy=1 / fade_compensate=0.00 / psy_rd=0.95:0.00 / mixed_ref=1 / me_range=24 / chroma_me=1 / trellis=2 / 8x8dct=1 / cqm=0 / deadzone=21,11 / fast_pskip=0 / chroma_qp_offset=-2 / threads=12 / lookahead_threads=2 / sliced_threads=0 / nr=0 / decimate=1 / interlaced=0 / bluray_compat=0 / constrained_intra=0 / bframes=8 / b_pyramid=2 / b_adapt=2 / b_bias=0 / direct=3 / weightb=1 / open_gop=0 / weightp=2 / keyint=250 / keyint_min=23 / scenecut=40 / intra_refresh=0 / rc=2pass / mbtree=0 / bitrate=6000 / ratetol=1.0 / qcomp=0.70 / qpmin=0 / qpmax=69 / qpstep=4 / cplxblur=20.0 / qblur=0.5 / ip_ratio=1.40 / pb_ratio=1.30 / aq=1:1.00 / zones=720,1156,b=1.5/1165,1760,b=1.5/3891,3925,b=1.8/25306,25398,b=1.2/25443,26210,b=1.2/26245,27043,b=1.2/27427,27680,b=1.2/33139,33254,b=1.2/33333,33415,b=1.2/33597,33680,b=1.2/34980,35037,b=1.2/35278,35957,b=1.2/36091,36440,b=1.2/36460,36745,b=1.2/36942,37144,b=1.2/55595,55777,b=1.2/56110,56230,b=1.2/56297,56478,b=1.2/56887,56929,b=1.2/57111,57174,b=1.2/70652,70726,b=1.2/70727,71582,b=1.2/71638,71738,b=1.2/71915,72604,b=1.2/72742,74245,b=1.2/74317,74403,b=1.2/74749,74753,b=1.2/74964,75035,b=1.2/75461,75516,b=1.2/75626,75714,b=1.2/105101,105177,b=1.2/104911,104998,b=1.2/112253,112264,b=1.2/112273,112293,b=1.2/113655,113658,b=1.2/114629,114679,b=1.2/123288,123295,b=1.2/142336,142416,b=1.2/142527,142551,b=1.2
    Language : English
    Default : Yes
    Forced : No
    Matrix coefficients : BT.709
    Audio #2
    ID : 2
    Format : DTS
    Format/Info : Digital Theater Systems
    Mode : 16
    Format settings, Endianness : Big
    Codec ID : A_DTS
    Duration : 2h 3mn
    Bit rate mode : Constant
    Bit rate : 1 509 Kbps
    Channel count : 6 channels
    Channel positions : Front: L C R, Side: L R, LFE
    Sampling rate : 48.0 KHz
    Bit depth : 24 bits
    Compression mode : Lossy
    Stream size : 1.30 GiB (9%)
    Title : Dub Dub Alternative
    Language : Russian
    Default : Yes
    Forced : No
    Audio #3
    ID : 3
    Format : AC-3
    Format/Info : Audio Coding 3
    Mode extension : CM (complete main)
    Format settings, Endianness : Big
    Codec ID : A_AC3
    Duration : 2h 3mn
    Bit rate mode : Constant
    Bit rate : 448 Kbps
    Channel count : 6 channels
    Channel positions : Front: L C R, Side: L R, LFE
    Sampling rate : 48.0 KHz
    Bit depth : 16 bits
    Compression mode : Lossy
    Stream size : 394 MiB (3%)
    Title : Dub Alternative
    Language : Russian
    Default : No
    Forced : No
    Audio #4
    ID : 4
    Format : DTS
    Format/Info : Digital Theater Systems
    Mode : 16
    Format settings, Endianness : Big
    Codec ID : A_DTS
    Duration : 2h 3mn
    Bit rate mode : Constant
    Bit rate : 1 509 Kbps
    Channel count : 6 channels
    Channel positions : Front: L C R, Side: L R, LFE
    Sampling rate : 48.0 KHz
    Bit depth : 24 bits
    Compression mode : Lossy
    Stream size : 1.30 GiB (9%)
    Title : AVO А. Гаврилов
    Language : Russian
    Default : No
    Forced : No
    Audio #5
    ID : 5
    Format : DTS
    Format/Info : Digital Theater Systems
    Mode : 16
    Format settings, Endianness : Big
    Codec ID : A_DTS
    Duration : 2h 3mn
    Bit rate mode : Constant
    Bit rate : 1 510 Kbps
    Channel count : 6 channels
    Channel positions : Front: L C R, Side: L R, LFE
    Sampling rate : 48.0 KHz
    Bit depth : 24 bits
    Compression mode : Lossy
    Stream size : 1.30 GiB (9%)
    Title : AVO Ю. Живов
    Language : Russian
    Default : No
    Forced : No
    Audio #6
    ID : 6
    Format : DTS
    Format/Info : Digital Theater Systems
    Mode : 16
    Format settings, Endianness : Big
    Codec ID : A_DTS
    Duration : 2h 3mn
    Bit rate mode : Constant
    Bit rate : 1 509 Kbps
    Channel count : 6 channels
    Channel positions : Front: L C R, Side: L R, LFE
    Sampling rate : 48.0 KHz
    Bit depth : 24 bits
    Compression mode : Lossy
    Stream size : 1.30 GiB (9%)
    Title : AVO Ю. Сербин
    Language : Russian
    Default : No
    Forced : No
    Audio #7
    ID : 7
    Format : DTS
    Format/Info : Digital Theater Systems
    Mode : 16
    Format settings, Endianness : Big
    Codec ID : A_DTS
    Duration : 2h 3mn
    Bit rate mode : Constant
    Bit rate : 1 509 Kbps
    Channel count : 6 channels
    Channel positions : Front: L C R, Side: L R, LFE
    Sampling rate : 48.0 KHz
    Bit depth : 24 bits
    Compression mode : Lossy
    Stream size : 1.30 GiB (9%)
    Title : AVO А. Дольский
    Language : Russian
    Default : No
    Forced : No
    Audio #8
    ID : 8
    Format : DTS
    Format/Info : Digital Theater Systems
    Mode : 16
    Format settings, Endianness : Big
    Codec ID : A_DTS
    Duration : 2h 3mn
    Bit rate mode : Constant
    Bit rate : 1 510 Kbps
    Channel count : 6 channels
    Channel positions : Front: L C R, Side: L R, LFE
    Sampling rate : 48.0 KHz
    Bit depth : 16 bits
    Compression mode : Lossy
    Stream size : 1.30 GiB (9%)
    Title : VO Andi
    Language : Russian
    Default : No
    Forced : No
    Audio #9
    ID : 9
    Format : DTS
    Format/Info : Digital Theater Systems
    Mode : 16
    Format settings, Endianness : Big
    Codec ID : A_DTS
    Duration : 2h 3mn
    Bit rate mode : Constant
    Bit rate : 1 509 Kbps
    Channel count : 6 channels
    Channel positions : Front: L C R, Side: L R, LFE
    Sampling rate : 48.0 KHz
    Bit depth : 24 bits
    Compression mode : Lossy
    Stream size : 1.30 GiB (9%)
    Title : Original
    Language : English
    Default : No
    Forced : No
    Audio #10
    ID : 10
    Format : AC-3
    Format/Info : Audio Coding 3
    Mode extension : CM (complete main)
    Format settings, Endianness : Big
    Codec ID : A_AC3
    Duration : 2h 3mn
    Bit rate mode : Constant
    Bit rate : 640 Kbps
    Channel count : 6 channels
    Channel positions : Front: L C R, Side: L R, LFE
    Sampling rate : 48.0 KHz
    Bit depth : 16 bits
    Compression mode : Lossy
    Stream size : 563 MiB (4%)
    Title : Deion
    Language : English
    Default : No
    Forced : No
    Text #11
    ID : 11
    Format : UTF-8
    Codec ID : S_TEXT/UTF8
    Codec ID/Info : UTF-8 Plain Text
    Title : Forced
    Language : Russian
    Default : Yes
    Forced : No
    Text #12
    ID : 12
    Format : UTF-8
    Codec ID : S_TEXT/UTF8
    Codec ID/Info : UTF-8 Plain Text
    Title : Full Notabenoid
    Language : Russian
    Default : No
    Forced : No
    Text #13
    ID : 13
    Format : UTF-8
    Codec ID : S_TEXT/UTF8
    Codec ID/Info : UTF-8 Plain Text
    Title : Full Unknown
    Language : Russian
    Default : No
    Forced : No
    Text #14
    ID : 14
    Format : UTF-8
    Codec ID : S_TEXT/UTF8
    Codec ID/Info : UTF-8 Plain Text
    Title : Full Анастасия Кузнецова
    Language : Russian
    Default : No
    Forced : No
    Text #15
    ID : 15
    Format : UTF-8
    Codec ID : S_TEXT/UTF8
    Codec ID/Info : UTF-8 Plain Text
    Title : Forced
    Language : English
    Default : No
    Forced : No
    Text #16
    ID : 16
    Format : UTF-8
    Codec ID : S_TEXT/UTF8
    Codec ID/Info : UTF-8 Plain Text
    Title : Full
    Language : English
    Default : No
    Forced : No
    Text #17
    ID : 17
    Format : UTF-8
    Codec ID : S_TEXT/UTF8
    Codec ID/Info : UTF-8 Plain Text
    Title : Full i
    Language : English
    Default : No
    Forced : No
    Text #18
    ID : 18
    Format : UTF-8
    Codec ID : S_TEXT/UTF8
    Codec ID/Info : UTF-8 Plain Text
    Title : SDH
    Language : English
    Default : No
    Forced : No
    Text #19
    ID : 19
    Format : UTF-8
    Codec ID : S_TEXT/UTF8
    Codec ID/Info : UTF-8 Plain Text
    Title : SDH Colored
    Language : English
    Default : No
    Forced : No
    Menu
    00:00:00.000 : :Chapter 01
    00:05:05.179 : :Chapter 02
    00:13:53.999 : :Chapter 03
    00:22:43.195 : :Chapter 04
    00:29:46.034 : :Chapter 05
    00:35:21.494 : :Chapter 06
    00:42:23.457 : :Chapter 07
    00:52:37.946 : :Chapter 08
    00:58:53.821 : :Chapter 09
    01:07:18.868 : :Chapter 10
    01:15:11.757 : :Chapter 11
    01:24:02.037 : :Chapter 12
    01:29:08.801 : :Chapter 13
    01:34:50.518 : :Chapter 14
    01:43:45.469 : :Chapter 15
    01:52:17.981 : :Chapter 16
    01:55:51.653 : :Chapter 17

    Размер скачиваемого торрента: 15.18 GB (16299971190 Bytes)

    Война миров Z / World War Z (2013) BDRip 720p от GORESEWAGE | Unrated Cut скачать через торрент бесплатно
    загрузка...
    Рейтинг →
     (голосов: 1, оценка 3/5, голосовать можно 1 раз )

    Другие торренты по теме:

  • Война миров / War of the Worlds (2005) BDRip 720p от NoLimits-Team
  • Война миров Z / World War Z (2013) HD 1080p | Трейлер
  • Уэллс Герберт Джордж - Война миров (2012) MP3
  • OST. Война Миров Z / World War Z (2013) MP3
  • Бессмертные: Война миров / Immortel (ad vitam) (2004) BDRip-AVC
  • Война миров Z / World War Z (2013) BDRip 720p | UNRATED | Звук с TS
  • Война миров Z / World War Z (2013) HDRip | UNRATED | Звук с TS
  • Война миров Z / World War Z (2013) HDRip от Scarabey | Расширенная версия | Andi


    • Комментарии (0):

      Информация

      Информация

        Посетители, находящиеся в группе Гости, не могут оставлять комментарии в данной новости.

        ↓ Меню



        ↓ Опрос

        А Вы добавили сайт в закладки?
        Да
        Не


        Top 10 за месяц (Фильмы)