.
Авторизация | Регистрация
Хочешь лучшие торренты? Добавь свой email!
Добавить
» » Аврора / Исчезающие волны / Aurora / Vanishing Waves (2012) BDRip 720p от CINEMANIA | L2 скачать через торрент бесплатно




    Аврора / Исчезающие волны / Aurora / Vanishing Waves (2012) BDRip 720p от CINEMANIA | L2 скачать через торрент бесплатно

    Опубликовал: Админ | Дата: 27-02-2015, 11:10 | Просмотров: 285



    Детально о кино
    Русское название: Аврора / Исчезающие волны
    Русское название в мировом прокате: Aurora / Vanishing Waves
    Создали в: 2012
    Категория жанра: фантастика, триллер, мелодрама, эротика
    Главный режиссер: Кристина Буозите
    Актеры: Юрга Ютайте, Марюс Ямпольскис, Брайс Форнье, Шарунас Бартас, Фредерик Андрау, Рудольфас Янсонас, Дарюс Мяшкаускас, Филип Ленковски, Брайс Форнье

    Сюжет фильма:
    Фильм Исчезающие волны от признанного мастера глубокого авторского кино - Кристины Боузите - рассказывает о слиянии сознаний двух людей, благодаря чему становятся возможными идеальные взаимоотношения. В ходе экспериментов, целью которых является трансфер нейронов головного мозга, происходит небывалое. Лукас, молодой подопытный, нежданно-негаданно сливается разумом с Авророй, молодой женщиной, лежащей в коме после ужасной автомобильной катастрофы. Вселенная внутри сознания обоих слившихся прекрасна, и в этой реальности они безумно счастливы. Взаимное влечение, понимание и притяжение двух людей приводит к тому, что удачно начавшийся эксперимент постепенно выходит за рамки разумного. Все дело в том, что Лукас не желает расставаться с Авророй, но они не могут встретиться в реальной жизни, так как девушка находится в глубокой коме и вряд ли когда-нибудь придет в себя.

    Фильм Исчезающие волны стоит посмотреть всем ценителям качественного и яркого арт-хауса, который поражает воображение и эпатирует неподготовленных зрителей. Среди особенностей киноленты – глубокий лиризм, который присутствует даже в интимных сценах. Футуризм картины проявляется и в сюжетных ходах, и в окружающей персонажей обстановке. Так, сама лаборатория, где проводятся эксперименты над сознанием, уставлена новейшей техникой, а ее декор словно пришел из далекого будущего. Символизм фильма позволяет каждому зрителю углядеть в нем что-то свое, а аллюзии на события и явления вызывают непрерывный поток ассоциаций во время просмотра.



    Снималось в: Литва, Франция, Бельгия
    Время просмотра: 01:59:59
    Тип перевода: Любительское (двухголосое) Точка Zрения

    Файл
    Тип видео: MKV
    Качество фильма: BDRip 720p PHD
    Информация о видео: 4848 kb/s, 1280x544
    Информация о звуке: Russian: AC3, 448 kb/s (6 ch) / Lithuanian: DTS, 1510 kb/s (6 ch)
    Субтитры: Russian (2x) cooman1, ХиХиДок, English
    Дополнительно: Сохранены оригинальные чаптеры как на Blu-ray
    Размер скачиваемого торрента: 5.82 Gb
    Скачать: Сэмпл

    Релиз группы:




    NFO
    Общее
    Vanishing.Waves.2012.Blu.Ray.720p.CINEMANIA.mkv
    Формат : Matroska
    Версия формата : Version 4 / Version 2
    Размер файла : 5,82 Гбайт
    Продолжительность : 1 ч. 59 м.
    Общий поток : 6944 Кбит/сек
    Название фильма : Release Group CINEMANIA
    Дата кодирования : UTC 2014-02-06 18:37:39
    Программа кодирования : mkvmerge v6.7.0 (;Back to the Ground;) 64bit built on Jan 8 2014 15:10:52
    Библиотека кодирования : libebml v1.3.0 libmatroska v1.4.1

    Видео
    Идентификатор : 1
    Формат : AVC
    Формат/Информация : Advanced Video Codec
    Профиль формата : High@L4.1
    Параметр CABAC формата : Да
    Параметр ReFrames формата : 12 кадров
    Идентификатор кодека : V_MPEG4/ISO/AVC
    Продолжительность : 1 ч. 59 м.
    Битрейт : 4848 Кбит/сек
    Ширина : 1280 пикселей
    Высота : 544 пикселя
    Соотношение сторон : 2,35:1
    Режим частоты кадров : Постоянный
    Частота кадров : 23,976 кадра/сек
    Цветовое пространство : YUV
    Субдискретизация насыщенности : 4:2:0
    Битовая глубина : 8 бит
    Тип развёртки : Прогрессивная
    Бит/(Пиксели*Кадры) : 0.290
    Размер потока : 4,06 Гбайт (70%)
    Заголовок : Release Group CINEMANIA
    Язык : English
    Default : Да
    Forced : Нет

    Аудио #1
    Идентификатор : 2
    Формат : AC-3
    Формат/Информация : Audio Coding 3
    Расширение режима : CM (complete main)
    Параметр Endianness формата : Big
    Идентификатор кодека : A_AC3
    Продолжительность : 1 ч. 59 м.
    Вид битрейта : Постоянный
    Битрейт : 448 Кбит/сек
    Каналы : 6 каналов
    Расположение каналов : Front: L C R, Side: L R, LFE
    Частота : 48,0 КГц
    Битовая глубина : 16 бит
    Метод сжатия : С потерями
    Размер потока : 384 Мбайт (6%)
    Заголовок : Точка Zрения
    Язык : Russian
    Default : Да
    Forced : Да

    Аудио #2
    Идентификатор : 3
    Формат : DTS
    Формат/Информация : Digital Theater Systems
    Режим : 16
    Параметр Endianness формата : Big
    Идентификатор кодека : A_DTS
    Продолжительность : 1 ч. 59 м.
    Вид битрейта : Постоянный
    Битрейт : 1510 Кбит/сек
    Каналы : 6 каналов
    Расположение каналов : Front: L C R, Side: L R, LFE
    Частота : 48,0 КГц
    Битовая глубина : 24 бит
    Метод сжатия : С потерями
    Размер потока : 1,27 Гбайт (22%)
    Язык : Lithuanian
    Default : Нет
    Forced : Нет

    Текст #1
    Идентификатор : 4
    Формат : UTF-8
    Идентификатор кодека : S_TEXT/UTF8
    Идентификатор кодека/Информация : UTF-8 Plain Text
    Заголовок : cooman1
    Язык : Russian
    Default : Нет
    Forced : Нет

    Текст #2
    Идентификатор : 5
    Формат : UTF-8
    Идентификатор кодека : S_TEXT/UTF8
    Идентификатор кодека/Информация : UTF-8 Plain Text
    Заголовок : ХиХиДок
    Язык : Russian
    Default : Нет
    Forced : Нет

    Текст #3
    Идентификатор : 6
    Формат : UTF-8
    Идентификатор кодека : S_TEXT/UTF8
    Идентификатор кодека/Информация : UTF-8 Plain Text
    Язык : English
    Default : Нет
    Forced : Нет

    Меню
    00:00:00.000 : en:00:00:00.000
    00:08:02.941 : en:00:08:02.941
    00:20:55.045 : en:00:20:55.045
    00:31:20.003 : en:00:31:20.003
    00:40:44.025 : en:00:40:44.025
    00:51:22.955 : en:00:51:22.955
    00:58:44.938 : en:00:58:44.938
    01:08:58.968 : en:01:08:58.968
    01:19:31.892 : en:01:19:31.892
    01:30:13.950 : en:01:30:13.950
    01:37:49.906 : en:01:37:49.906
    01:47:28.901 : en:01:47:28.901


    Залил: DGEKIGAN
    Размер скачиваемого торрента: 5.82 GB (6248856007 Bytes)

    Аврора / Исчезающие волны / Aurora / Vanishing Waves (2012) BDRip 720p от CINEMANIA | L2 скачать через торрент бесплатно
    загрузка...
    Рейтинг →
     (голосов: 1, оценка 5/5, голосовать можно 1 раз )

    Другие торренты по теме:

  • Аврора / Aurora (2010) DVDRip от ClubTorrent
  • Аврора: Операция Перехват / Aurora: Operation Intercept (1995) DVDRip от NovaLan | P скачать через торрент бесплатно
  • Аврора / Исчезающие волны / Aurora / Vanishing Waves (2012) BDRip 1080p от CINEMANIA | L2 скачать через торрент бесплатно
  • Аврора / Aurora (2010-2011) SATRip скачать через торрент бесплатно
  • Искатели («Аврора». Мифология выстрела) / 2015 / РУ / SATRip


    • Комментарии (0):

      Информация

      Информация

        Посетители, находящиеся в группе Гости, не могут оставлять комментарии в данной новости.

        ↓ Меню



        ↓ Опрос

        А Вы добавили сайт в закладки?
        Да
        Не


        Top 10 за месяц (Фильмы)