.
Авторизация | Регистрация
Хочешь лучшие торренты? Добавь свой email!
Добавить
» » Война миров Z / World War Z (2013) BDRemux 1080p от GORESEWAGE | Unrated Cut скачать через торрент бесплатно




    Война миров Z / World War Z (2013) BDRemux 1080p от GORESEWAGE | Unrated Cut скачать через торрент бесплатно

    Опубликовал: Админ | Дата: 27-02-2015, 11:10 | Просмотров: 262



    Русское название: Война миров Z
    Русское название в мировом прокате: World War Z
    Создали в: 2013
    Снималось в: США, Мальта
    Категория жанра: ужасы, фантастика, боевик, триллер, приключения
    Время просмотра: 02:03:03
    Перевод текста 1: Профессиональный (дублированный) вставки альтернативного дубляжа на расширенные сцены
    Перевод текста 2: Профессиональный (дублированный) Альтернативный
    Перевод текста 3: Авторский (одноголосый закадровый) А. Гаврилов
    Перевод текста 4: Авторский (одноголосый закадровый) Ю. Живов
    Перевод текста 5: Авторский (одноголосый закадровый) Ю. Сербин
    Перевод текста 6: Авторский (одноголосый закадровый) А. Дольский
    Перевод текста 7: Любительский (одноголосый закадровый) Andi
    Оригинальная аудиодорожка: Английская
    Субтитры: Russian (Forced, Full Notabenoid, Full Unknown, Full Анастасия Кузнецова), English (Forced, Full, Full i, SDH, SDH Colored)
    Киностудия: Paramount Pictures, Skydance Productions, Hemisphere Media Capital

    Главный режиссёр: Марк Форстер / Marc Forster

    Актеры: Брэд Питт, Мирей Инос, Даниэла Картес, Джеймс Бэдж Дэйл, Люди Букен, Мэттью Фокс, Фана Мокоэна, Дэвид Морс, Элиес Габел, Питер Капальди и др.

    Сюжет: Сотрудник ООН Джерри Лэйн наперегонки со временем пытается остановить заражение, способное полностью истребить человечество.



    Sample

    Качество фильма: BDRemux 1080p (World.War.Z.2013.UNRATED.1080p.BluRay.AVC.DTS-HD.MA.7.1-TTG)
    Контейнер: MKV
    Информация о видео кодек: MPEG-4 AVC Video
    Информация о звуке кодек: DTS-HD MA / DTS / AC3
    Информация о видео: MPEG-4 AVC Video / 29739 kbps / 1920x1080p / 23,976 fps / 16:9 / High Profile 4.1
    Информация о звуке 1: Russian / DTS-HD MA / 7.1 / 48 kHz / 5166 kbps / 24-bit (DTS Core: 5.1 / 48 kHz / 1536 kbps / 24-bit) / Dub Dub Alternative
    Информация о звуке 2: Russian / AC3 / 5.1 / 48 kHz / 448 kbps / 16-bit / Dub Alternative
    Информация о звуке 3: Russian / DTS-HD MA / 7.1 / 48 kHz / 4971 kbps / 24-bit (DTS Core: 5.1 / 48 kHz / 1536 kbps / 24-bit) / AVO А. Гаврилов
    Информация о звуке 4: Russian / DTS / 5.1 / 48 kHz / 1536 kbps / 24-bit / AVO Ю. Живов
    Информация о звуке 5: Russian / DTS-HD MA / 7.1 / 48 kHz / 4961 kbps / 24-bit (DTS Core: 5.1 / 48 kHz / 1536 kbps / 24-bit) / AVO Ю. Сербин
    Информация о звуке 6: Russian / DTS-HD MA / 5.1 / 48 kHz / 3618 kbps / 24-bit (DTS Core: 5.1 / 48 kHz / 1536 kbps / 24-bit) / AVO А. Дольский
    Информация о звуке 7: Russian / DTS / 5.1 / 48 kHz / 1536 kbps / 16-bit / VO Andi
    Информация о звуке 8: English / DTS-HD MA / 7.1 / 48 kHz / 4991 kbps / 24-bit (DTS Core: 5.1 / 48 kHz / 1536 kbps / 24-bit) / Original
    Информация о звуке 9: English / AC3 / 5.1 / 48 kHz / 640 kbps / 16-bit / Deion
    Навигация по главам: да

    Дополнительная информация

    * За дорогу №1 thx Sergesha.
    * Перевод Андрея Гаврилова доступен благодаря пользователям HDTracker: SavineX, dunhill20, Chistobaev, lexal, carter64, KpucTo161, Pain_70, shitman82, Tehnar, Wolf_Larsen, wooky3, Диммон, feldeger, Brown15, Guyver, fly32, hulahup, karantin66, nimph, Skibichok, rydanes, Role, Xerman13, ZeRoNe, therox, edsz, -Джосс-, Denis2251, друг feldegerа, TvarYuri, _MyxAmoP_, chernila, v111o, Rolly Tyler, v111o, Xerman13, rydanes.
    * Перевод Юрия Живова доступен благодаря пользователям форума E180.
    * Перевод Юрия Сербина доступен благодаря пользователям HDClub: igrok2012, IvAlien, tambov68, denismgn1987, Luka69, Andresoff, savex, Hirurg, fen, iKazar, Kirillhome, storm_vv, CinemaHD, Max_U, simonov_vs, dr_akula68, Rushmore, rivaspb, hardkatok, zlodei24, RAUL, gafur. Работа со звуком: dsk71.
    * Перевод Андрея Дольского доступен благодаря пользователю HDTracker: MeGUI.
    * За дорогу №7 thx Andi.
    * За русские сабы №4 thx Анастасия Кузнецова, VovaZ Экзот.

    Скриншоты для ознакомления


    MediaInfo
    C:/GORESEWAGE/World War Z 2013 Unrated Cut BDRemux 1080p GORESEWAGE.mkv
    General
    Unique ID : 211070642785797337906062151716973356775 (0x9ECABA25565D22398B3E06E2E1E8A6E7)
    Complete name : C:/GORESEWAGE/World War Z 2013 Unrated Cut BDRemux 1080p GORESEWAGE.mkv
    Format : Matroska
    Format version : Version 4 / Version 2
    File size : 49.2 GiB
    Duration : 2h 3mn
    Overall bit rate mode : Variable
    Overall bit rate : 57.3 Mbps
    Movie name : World War Z 2013 Unrated Cut BDRemux 1080p GORESEWAGE
    Encoded date : UTC 2014-02-06 16:43:39
    Writing application : mkvmerge v6.1.0 (;Old Devil;) built on Mar 2 2013 14:32:37
    Writing library : libebml v1.3.0 libmatroska v1.4.0
    Attachment : Yes
    Video #1
    ID : 1
    Format : AVC
    Format/Info : Advanced Video Codec
    Format profile : High@L4.1
    Format settings, CABAC : Yes
    Format settings, ReFrames : 4 frames
    Codec ID : V_MPEG4/ISO/AVC
    Duration : 2h 3mn
    Bit rate mode : Variable
    Maximum bit rate : 34.0 Mbps
    Width : 1 920 pixels
    Height : 1 080 pixels
    Display aspect ratio : 16:9
    Frame rate mode : Constant
    Frame rate : 23.976 fps
    Color space : YUV
    Chroma subsampling : 4:2:0
    Bit depth : 8 bits
    Scan type : Progressive
    Title : World War Z 2013 Unrated Cut BDRemux 1080p GORESEWAGE
    Language : English
    Default : Yes
    Forced : No
    Audio #2
    ID : 2
    Format : DTS
    Format/Info : Digital Theater Systems
    Format profile : MA / Core
    Mode : 16
    Format settings, Endianness : Big
    Codec ID : A_DTS
    Duration : 2h 3mn
    Bit rate mode : Variable
    Bit rate : Unknown / 1 509 Kbps
    Channel count : 8 channels / 6 channels
    Channel positions : Front: L C R, Side: L R, Back: L R, LFE / Front: L C R, Side: L R, LFE
    Sampling rate : 48.0 KHz
    Bit depth : 24 bits
    Compression mode : Lossless / Lossy
    Title : Dub Dub Alternative
    Language : Russian
    Default : Yes
    Forced : No
    Audio #3
    ID : 3
    Format : AC-3
    Format/Info : Audio Coding 3
    Mode extension : CM (complete main)
    Format settings, Endianness : Big
    Codec ID : A_AC3
    Duration : 2h 3mn
    Bit rate mode : Constant
    Bit rate : 448 Kbps
    Channel count : 6 channels
    Channel positions : Front: L C R, Side: L R, LFE
    Sampling rate : 48.0 KHz
    Bit depth : 16 bits
    Compression mode : Lossy
    Stream size : 394 MiB (1%)
    Title : Dub Alternative
    Language : Russian
    Default : No
    Forced : No
    Audio #4
    ID : 4
    Format : DTS
    Format/Info : Digital Theater Systems
    Format profile : MA / Core
    Mode : 16
    Format settings, Endianness : Big
    Codec ID : A_DTS
    Duration : 2h 3mn
    Bit rate mode : Variable
    Bit rate : Unknown / 1 509 Kbps
    Channel count : 8 channels / 6 channels
    Channel positions : Front: L C R, Side: L R, Back: L R, LFE / Front: L C R, Side: L R, LFE
    Sampling rate : 48.0 KHz
    Bit depth : 24 bits
    Compression mode : Lossless / Lossy
    Title : AVO А. Гаврилов
    Language : Russian
    Default : No
    Forced : No
    Audio #5
    ID : 5
    Format : DTS
    Format/Info : Digital Theater Systems
    Mode : 16
    Format settings, Endianness : Big
    Codec ID : A_DTS
    Duration : 2h 3mn
    Bit rate mode : Constant
    Bit rate : 1 510 Kbps
    Channel count : 6 channels
    Channel positions : Front: L C R, Side: L R, LFE
    Sampling rate : 48.0 KHz
    Bit depth : 24 bits
    Compression mode : Lossy
    Stream size : 1.30 GiB (3%)
    Title : AVO Ю. Живов
    Language : Russian
    Default : No
    Forced : No
    Audio #6
    ID : 6
    Format : DTS
    Format/Info : Digital Theater Systems
    Format profile : MA / Core
    Mode : 16
    Format settings, Endianness : Big
    Codec ID : A_DTS
    Duration : 2h 3mn
    Bit rate mode : Variable
    Bit rate : Unknown / 1 509 Kbps
    Channel count : 8 channels / 6 channels
    Channel positions : Front: L C R, Side: L R, Back: L R, LFE / Front: L C R, Side: L R, LFE
    Sampling rate : 48.0 KHz
    Bit depth : 24 bits
    Compression mode : Lossless / Lossy
    Title : AVO Ю. Сербин
    Language : Russian
    Default : No
    Forced : No
    Audio #7
    ID : 7
    Format : DTS
    Format/Info : Digital Theater Systems
    Format profile : MA / Core
    Mode : 16
    Format settings, Endianness : Big
    Codec ID : A_DTS
    Duration : 2h 3mn
    Bit rate mode : Variable
    Bit rate : Unknown / 1 509 Kbps
    Channel count : 6 channels
    Channel positions : Front: L C R, Side: L R, LFE
    Sampling rate : 48.0 KHz
    Bit depth : 24 bits
    Compression mode : Lossless / Lossy
    Title : AVO А. Дольский
    Language : Russian
    Default : No
    Forced : No
    Audio #8
    ID : 8
    Format : DTS
    Format/Info : Digital Theater Systems
    Mode : 16
    Format settings, Endianness : Big
    Codec ID : A_DTS
    Duration : 2h 3mn
    Bit rate mode : Constant
    Bit rate : 1 510 Kbps
    Channel count : 6 channels
    Channel positions : Front: L C R, Side: L R, LFE
    Sampling rate : 48.0 KHz
    Bit depth : 16 bits
    Compression mode : Lossy
    Stream size : 1.30 GiB (3%)
    Title : VO Andi
    Language : Russian
    Default : No
    Forced : No
    Audio #9
    ID : 9
    Format : DTS
    Format/Info : Digital Theater Systems
    Format profile : MA / Core
    Mode : 16
    Format settings, Endianness : Big
    Codec ID : A_DTS
    Duration : 2h 3mn
    Bit rate mode : Variable
    Bit rate : Unknown / 1 509 Kbps
    Channel count : 8 channels / 6 channels
    Channel positions : Front: L C R, Side: L R, Back: L R, LFE / Front: L C R, Side: L R, LFE
    Sampling rate : 48.0 KHz
    Bit depth : 24 bits
    Compression mode : Lossless / Lossy
    Title : Original
    Language : English
    Default : No
    Forced : No
    Audio #10
    ID : 10
    Format : AC-3
    Format/Info : Audio Coding 3
    Mode extension : CM (complete main)
    Format settings, Endianness : Big
    Codec ID : A_AC3
    Duration : 2h 3mn
    Bit rate mode : Constant
    Bit rate : 640 Kbps
    Channel count : 6 channels
    Channel positions : Front: L C R, Side: L R, LFE
    Sampling rate : 48.0 KHz
    Bit depth : 16 bits
    Compression mode : Lossy
    Stream size : 563 MiB (1%)
    Title : Deion
    Language : English
    Default : No
    Forced : No
    Text #11
    ID : 11
    Format : UTF-8
    Codec ID : S_TEXT/UTF8
    Codec ID/Info : UTF-8 Plain Text
    Title : Forced
    Language : Russian
    Default : Yes
    Forced : No
    Text #12
    ID : 12
    Format : UTF-8
    Codec ID : S_TEXT/UTF8
    Codec ID/Info : UTF-8 Plain Text
    Title : Full Notabenoid
    Language : Russian
    Default : No
    Forced : No
    Text #13
    ID : 13
    Format : UTF-8
    Codec ID : S_TEXT/UTF8
    Codec ID/Info : UTF-8 Plain Text
    Title : Full Unknown
    Language : Russian
    Default : No
    Forced : No
    Text #14
    ID : 14
    Format : UTF-8
    Codec ID : S_TEXT/UTF8
    Codec ID/Info : UTF-8 Plain Text
    Title : Full Анастасия Кузнецова
    Language : Russian
    Default : No
    Forced : No
    Text #15
    ID : 15
    Format : UTF-8
    Codec ID : S_TEXT/UTF8
    Codec ID/Info : UTF-8 Plain Text
    Title : Forced
    Language : English
    Default : No
    Forced : No
    Text #16
    ID : 16
    Format : UTF-8
    Codec ID : S_TEXT/UTF8
    Codec ID/Info : UTF-8 Plain Text
    Title : Full
    Language : English
    Default : No
    Forced : No
    Text #17
    ID : 17
    Format : UTF-8
    Codec ID : S_TEXT/UTF8
    Codec ID/Info : UTF-8 Plain Text
    Title : Full i
    Language : English
    Default : No
    Forced : No
    Text #18
    ID : 18
    Format : UTF-8
    Codec ID : S_TEXT/UTF8
    Codec ID/Info : UTF-8 Plain Text
    Title : SDH
    Language : English
    Default : No
    Forced : No
    Text #19
    ID : 19
    Format : UTF-8
    Codec ID : S_TEXT/UTF8
    Codec ID/Info : UTF-8 Plain Text
    Title : SDH Colored
    Language : English
    Default : No
    Forced : No
    Menu
    00:00:00.000 : :Chapter 01
    00:05:05.179 : :Chapter 02
    00:13:53.999 : :Chapter 03
    00:22:43.195 : :Chapter 04
    00:29:46.034 : :Chapter 05
    00:35:21.494 : :Chapter 06
    00:42:23.457 : :Chapter 07
    00:52:37.946 : :Chapter 08
    00:58:53.821 : :Chapter 09
    01:07:18.868 : :Chapter 10
    01:15:11.757 : :Chapter 11
    01:24:02.037 : :Chapter 12
    01:29:08.801 : :Chapter 13
    01:34:50.518 : :Chapter 14
    01:43:45.469 : :Chapter 15
    01:52:17.981 : :Chapter 16
    01:55:51.653 : :Chapter 17

    Размер скачиваемого торрента: 49.21 GB (52840475232 Bytes)

    Война миров Z / World War Z (2013) BDRemux 1080p от GORESEWAGE | Unrated Cut скачать через торрент бесплатно
    загрузка...
    Рейтинг →
     (голосов: 1, оценка 3/5, голосовать можно 1 раз )

    Другие торренты по теме:

  • Война миров / War of the Worlds (2005) BDRip 720p от NoLimits-Team
  • Война миров Z / World War Z (2013) HD 1080p | Трейлер
  • Уэллс Герберт Джордж - Война миров (2012) MP3
  • OST. Война Миров Z / World War Z (2013) MP3
  • Бессмертные: Война миров / Immortel (ad vitam) (2004) BDRip-AVC
  • Война миров Z / World War Z (2013) BDRip 720p | UNRATED | Звук с TS
  • Война миров Z / World War Z (2013) HDRip | UNRATED | Звук с TS
  • Война миров Z / World War Z (2013) HDRip от Scarabey | Расширенная версия | Andi


    • Комментарии (0):

      Информация

      Информация

        Посетители, находящиеся в группе Гости, не могут оставлять комментарии в данной новости.

        ↓ Меню



        ↓ Опрос

        А Вы добавили сайт в закладки?
        Да
        Не


        Top 10 за месяц (Фильмы)