.
Авторизация | Регистрация
Хочешь лучшие торренты? Добавь свой email!
Добавить
» » Ржавая сталь / Rusty Steel (2013) SATRip от MediaClub | P2 скачать через торрент бесплатно




    Ржавая сталь / Rusty Steel (2013) SATRip от MediaClub | P2 скачать через торрент бесплатно

    Опубликовал: Админ | Дата: 27-02-2015, 11:10 | Просмотров: 249



    Детально о кино
    Русское название: Ржавая сталь
    Русское название в мировом прокате: Rusty Steel
    Создали в: 2013
    Категория жанра: Приключения
    Главный режиссер: Йон Йонеску
    Актеры: Йоханн Урб, Ирина Буческу, Пол Кэмпбелл, Дин Ст?куэлл

    Сюжет фильма:
    Братья-американцы приезжают в Румынию, чтобы вступить в права наследства, оставленного им дядей. Каково же их рахочарование, когда все наследство заключается в старой ржавой посудине под названием Ржавая сталь. Братья даже подумывают вернуться в США, но дядины дневники толкают их к поискам.

    Снималось в: США
    Киностудия: Vision
    Время просмотра: 01:29:27
    Перевод текста: Профессиональный двухголосый (НТВ )

    Файл
    Кодек для видео: XviD
    Качество фильма: SATRip
    Информация о видео: 1978 Кбит/с, 720x384, 25.000 кадр/с
    Информация о звуке: Русский (АС3, 2 ch, 192 Кбит/с)

    Семпл

    Скриншоты для ознакомления

    MI
    Общее
    Полное имя : Rzhavaja.stal.2013.SATRip.MediaClub.avi
    Формат : AVI
    Формат/Информация : Audio Video Interleave
    Размер файла : 1,36 Гбайт
    Продолжительность : 1 ч. 29 м.
    Общий поток : 2180 Кбит/сек
    Название фильма : MediaClub
    Программа кодирования : VirtualDubMod 1.5.10.2 (build 2540/release)
    Библиотека кодирования : VirtualDubMod build 2540/release

    Видео
    Идентификатор : 0
    Формат : MPEG-4 Visual
    Профиль формата : Advanced Simple@L5
    Параметр BVOP формата : 2
    Параметр QPel формата : Нет
    Параметр GMC формата : Без точки перехода
    Параметр матрицы формата : Default (MPEG)
    Идентификатор кодека : XVID
    Идентификатор кодека/Подсказка : XviD
    Продолжительность : 1 ч. 29 м.
    Битрейт : 1978 Кбит/сек
    Ширина : 720 пикселей
    Высота : 384 пикселя
    Соотношение сторон : 1,85:1
    Частота кадров : 25,000 кадров/сек
    Цветовое пространство : YUV
    Субдискретизация насыщенности : 4:2:0
    Битовая глубина : 8 бит
    Тип развёртки : Прогрессивная
    Метод сжатия : С потерями
    Бит/(Пиксели*Кадры) : 0.286
    Размер потока : 1,24 Гбайт (91%)
    Библиотека кодирования : XviD 65

    Аудио
    Идентификатор : 1
    Формат : AC-3
    Формат/Информация : Audio Coding 3
    Расширение режима : CM (complete main)
    Параметр Endianness формата : Big
    Идентификатор кодека : 2000
    Продолжительность : 1 ч. 29 м.
    Вид битрейта : Постоянный
    Битрейт : 192 Кбит/сек
    Каналы : 2 канала
    Расположение каналов : Front: L R
    Частота : 48,0 КГц
    Битовая глубина : 16 бит
    Метод сжатия : С потерями
    Размер потока : 123 Мбайт (9%)
    Выравнивание : Разделение по промежуткам
    Продолжительность промежутка : 40 мс. (1,00 видеокадр)
    Время предзагрузки промежутка : 500 мс.


    Релиз подготовил:
    За предоставленный постер огромное спасибо Инне - cookies и команде: Media-Art-Club

    Залил: poja
    Размер скачиваемого торрента: 1.36 GB (1462571008 Bytes)

    Ржавая сталь / Rusty Steel (2013) SATRip от MediaClub | P2 скачать через торрент бесплатно
    загрузка...
    Рейтинг →
     (голосов: 1, оценка 5/5, голосовать можно 1 раз )

    Другие торренты по теме:

  • Ржавая сталь / Rusty Steel (2013) DVB от MediaClub | P2 скачать через торрент бесплатно
  • Ржавая сталь / Rusty Steel (2013) HDTVRip-AVC от MediaClub | P2 скачать через торрент бесплатно
  • Ржавая сталь / Rusty Steel (2013) HDTVRip от Rulya74 | НТВ скачать через торрент бесплатно
  • Ржавая сталь / Rusty Steel (2013) HDTVRip 1080p от MediaClub | P2 скачать через торрент бесплатно


    • Комментарии (0):

      Информация

      Информация

        Посетители, находящиеся в группе Гости, не могут оставлять комментарии в данной новости.

        ↓ Меню



        ↓ Опрос

        А Вы добавили сайт в закладки?
        Да
        Не


        Top 10 за месяц (Фильмы)