.
Авторизация | Регистрация
Хочешь лучшие торренты? Добавь свой email!
Добавить
» » Прометей / Prometheus (2012) BDRip 1080p от GORESEWAGE | 3D-Video скачать торрент бесплатно




    Прометей / Prometheus (2012) BDRip 1080p от GORESEWAGE | 3D-Video скачать торрент бесплатно

    Опубликовал: Админ | Дата: 27-02-2015, 11:10 | Просмотров: 272



    Русское название: Прометей
    Русское название в мировом прокате: Prometheus
    Создали в: 2012
    Снималось в: США, Великобритания
    Категория жанра: фантастика, триллер, приключения
    Время просмотра: 02:03:46
    Перевод текста 1: Профессиональный (дублированный) Rus
    Перевод текста 2: Авторский (одноголосый закадровый) А. Гаврилов
    Перевод текста 3: Авторский (одноголосый закадровый) В. Горчаков
    Перевод текста 4: Любительский (одноголосый закадровый) zamez
    Перевод текста 5: Любительский (одноголосый закадровый) Doctor_Joker
    Перевод текста 6: Профессиональный (дублированный) Ukr
    Оригинальная аудиодорожка: Английская
    Субтитры: Russian (Forced, Full BD, Full Voronine, Full 107miller, Full Stevvie, Full Doctor_Joker, Full Commentary #1, Full Commentary #2), Ukrainian (Forced, Full), английские (Full, SDH)
    Киностудия: Twentieth Century Fox, Dune Entertainment, Scott Free Productions

    Главный режиссёр: Ридли Скотт / Ridley Scott

    Актеры: Нуми Рапас, Майкл Фассбендер, Шарлиз Терон, Идрис Эльба, Гай Пирс, Логан Маршалл-Грин, Шон Харрис, Рейф Сполл, Иман Эллиотт, Бенедикт Вонг и др.

    Сюжет: В поисках сакрального знания группа учёных отправляется в самые тёмные и неизведанные чертоги вселенной. Именно там, в отдалённых мирах, находясь на пределе своих умственных и физических возможностей, им предстоит вступить в безжалостную схватку за будущее всего человечества…



    Sample

    Качество фильма: BDRip 1080p (HDMaNiAcS)
    Контейнер: MKV
    Тип видео 3D: Half OverUnder / Вертикальная анаморфная стереопара
    Порядок ракурсов: левый ракурс первый
    Информация о видео кодек: MPEG-4 AVC Video
    Информация о звуке кодек: DTS / AC3
    Информация о видео: MPEG-4 AVC Video / 14500 kbps / 1920x1080p / 23,976 fps / 16:9 / High Profile 4.1
    Информация о звуке 1: Russian / DTS / 5.1 / 48 kHz / 768 kbps / 24-bit / Dub
    Информация о звуке 2: Russian / DTS / 5.1 / 48 kHz / 1536 kbps / 24-bit / AVO А. Гаврилов
    Информация о звуке 3: Russian / DTS / 5.1 / 48 kHz / 1536 kbps / 24-bit / AVO В. Горчаков
    Информация о звуке 4: Russian / DTS / 5.1 / 48 kHz / 1536 kbps / 24-bit / VO zamez
    Информация о звуке 5: Russian / DTS / 5.1 / 48 kHz / 1536 kbps / 24-bit / VO Doctor_Joker
    Информация о звуке 6: Ukrainian / AC3 / 5.1 / 48 kHz / 448 kbps / 16-bit / Dub
    Информация о звуке 7: English / DTS / 5.1 / 48 kHz / 1536 kbps / 24-bit / Original
    Информация о звуке 8: English / AC3 / 2.0 / 48 kHz / 224 kbps / 16-bit / Commentary by Ridley Scott
    Информация о звуке 9: English / AC3 / 2.0 / 48 kHz / 224 kbps / 16-bit / Commentary by Jon Spaihts Damon Lindelof
    Навигация по главам: да

    Дополнительная информация

    * AVO Андрея Гаврилова доступен благодаря пользователям форума Piratca: Джосс, dunhill200, lexal2002, Chistobaev, LAVR, SavineX, Slimka, Daniel Rock, Pain_70, Guyver, pestel, GaryH, КириллВП, Linnan, эвоки, TvarYuri, Dr. Destructo, GansAn, farti, therox, Perusta, Anatoliy555, Loki1982, Bakuman, zetrob, chefchef, Architector44, _shurik_, avedon, rocky4, ZeDOK, shitman82, skrdma, _long_, Andrey_Tula, audiolubitel, eyrobot, kondratdoktor, myxamop, kix, denis_mgn_1987, Consul, skib, Rolly Tyler, fly32. Работа со звуком: Slimka.
    * AVO Василия Горчакова доступен благодаря пользователю, пожелавшиму остаться инкогнито.
    * VO zamez доступен благодаря Вячеслав zamez, Ясень Дэн 107miller.
    * VO Doctor_Joker доступен благодаря Doctor_Joker (Алексей Матвеев) будулайроманов. Работа со звуком: Perevodman.

    Скриншоты для ознакомления


    MediaInfo
    C:/GORESEWAGE/Prometheus 3D 2012 BDRip 1080p HOU GORESEWAGE.mkv
    General
    Unique ID : 175025890442678097341311054368244892529 (0x83ACC2A5F29594A983D632618DE60371)
    Complete name : C:/GORESEWAGE/Prometheus 3D 2012 BDRip 1080p HOU GORESEWAGE.mkv
    Format : Matroska
    Format version : Version 4 / Version 2
    File size : 20.5 GiB
    Duration : 2h 3mn
    Overall bit rate : 23.7 Mbps
    Movie name : Prometheus 3D 2012 BDRip 1080p HOU GORESEWAGE
    Encoded date : UTC 2014-02-05 06:11:51
    Writing application : mkvmerge v6.7.0 (;Back to the Ground;) 64bit built on Jan 8 2014 15:10:52
    Writing library : libebml v1.3.0 libmatroska v1.4.1
    Attachment : Yes
    Video #1
    ID : 1
    Format : AVC
    Format/Info : Advanced Video Codec
    Format profile : High@L4.1
    Format settings, CABAC : Yes
    Format settings, ReFrames : 4 frames
    Codec ID : V_MPEG4/ISO/AVC
    Duration : 2h 3mn
    Bit rate : 14.5 Mbps
    Width : 1 920 pixels
    Height : 1 080 pixels
    Display aspect ratio : 16:9
    Frame rate mode : Constant
    Frame rate : 23.976 fps
    Color space : YUV
    Chroma subsampling : 4:2:0
    Bit depth : 8 bits
    Scan type : Progressive
    Bits/(Pixel*Frame) : 0.292
    Stream size : 12.1 GiB (59%)
    Title : Prometheus 3D 2012 BDRip 1080p HOU GORESEWAGE
    Writing library : x264 core 128 r2216 198a7ea
    Encoding settings : cabac=1 / ref=4 / deblock=1:-3:-3 / analyse=0x3:0x113 / me=tesa / subme=10 / psy=1 / psy_rd=1.00:0.00 / mixed_ref=1 / me_range=32 / chroma_me=1 / trellis=2 / 8x8dct=1 / cqm=0 / deadzone=21,11 / fast_pskip=1 / chroma_qp_offset=-2 / threads=12 / lookahead_threads=2 / sliced_threads=0 / nr=0 / decimate=0 / interlaced=0 / bluray_compat=0 / constrained_intra=0 / bframes=8 / b_pyramid=2 / b_adapt=2 / b_bias=0 / direct=3 / weightb=1 / open_gop=0 / weightp=2 / keyint=250 / keyint_min=23 / scenecut=40 / intra_refresh=0 / rc=2pass / mbtree=0 / bitrate=14500 / ratetol=1.0 / qcomp=0.65 / qpmin=5 / qpmax=65 / qpstep=4 / cplxblur=20.0 / qblur=0.5 / ip_ratio=1.35 / pb_ratio=1.25 / aq=2:0.80
    Language : English
    Default : Yes
    Forced : No
    Audio #2
    ID : 2
    Format : DTS
    Format/Info : Digital Theater Systems
    Mode : 16
    Format settings, Endianness : Big
    Codec ID : A_DTS
    Duration : 2h 3mn
    Bit rate mode : Constant
    Bit rate : 768 Kbps
    Channel count : 6 channels
    Channel positions : Front: L C R, Side: L R, LFE
    Sampling rate : 48.0 KHz
    Bit depth : 24 bits
    Compression mode : Lossy
    Stream size : 680 MiB (3%)
    Title : Dub
    Language : Russian
    Default : Yes
    Forced : No
    Audio #3
    ID : 3
    Format : DTS
    Format/Info : Digital Theater Systems
    Mode : 16
    Format settings, Endianness : Big
    Codec ID : A_DTS
    Duration : 2h 3mn
    Bit rate mode : Constant
    Bit rate : 1 509 Kbps
    Channel count : 6 channels
    Channel positions : Front: L C R, Side: L R, LFE
    Sampling rate : 48.0 KHz
    Bit depth : 24 bits
    Compression mode : Lossy
    Stream size : 1.30 GiB (6%)
    Title : AVO А. Гаврилов
    Language : Russian
    Default : No
    Forced : No
    Audio #4
    ID : 4
    Format : DTS
    Format/Info : Digital Theater Systems
    Mode : 16
    Format settings, Endianness : Big
    Codec ID : A_DTS
    Duration : 2h 3mn
    Bit rate mode : Constant
    Bit rate : 1 509 Kbps
    Channel count : 6 channels
    Channel positions : Front: L C R, Side: L R, LFE
    Sampling rate : 48.0 KHz
    Bit depth : 24 bits
    Compression mode : Lossy
    Stream size : 1.30 GiB (6%)
    Title : AVO В. Горчаков
    Language : Russian
    Default : No
    Forced : No
    Audio #5
    ID : 5
    Format : DTS
    Format/Info : Digital Theater Systems
    Mode : 16
    Format settings, Endianness : Big
    Codec ID : A_DTS
    Duration : 2h 3mn
    Bit rate mode : Constant
    Bit rate : 1 509 Kbps
    Channel count : 6 channels
    Channel positions : Front: L C R, Side: L R, LFE
    Sampling rate : 48.0 KHz
    Bit depth : 24 bits
    Compression mode : Lossy
    Stream size : 1.30 GiB (6%)
    Title : VO zamez
    Language : Russian
    Default : No
    Forced : No
    Audio #6
    ID : 6
    Format : DTS
    Format/Info : Digital Theater Systems
    Mode : 16
    Format settings, Endianness : Big
    Codec ID : A_DTS
    Duration : 2h 3mn
    Bit rate mode : Constant
    Bit rate : 1 509 Kbps
    Channel count : 6 channels
    Channel positions : Front: L C R, Side: L R, LFE
    Sampling rate : 48.0 KHz
    Bit depth : 24 bits
    Compression mode : Lossy
    Stream size : 1.30 GiB (6%)
    Title : VO Doctor_Joker
    Language : Russian
    Default : No
    Forced : No
    Audio #7
    ID : 7
    Format : AC-3
    Format/Info : Audio Coding 3
    Mode extension : CM (complete main)
    Format settings, Endianness : Big
    Codec ID : A_AC3
    Duration : 2h 3mn
    Bit rate mode : Constant
    Bit rate : 448 Kbps
    Channel count : 6 channels
    Channel positions : Front: L C R, Side: L R, LFE
    Sampling rate : 48.0 KHz
    Bit depth : 16 bits
    Compression mode : Lossy
    Stream size : 397 MiB (2%)
    Title : Dub
    Language : Ukrainian
    Default : No
    Forced : No
    Audio #8
    ID : 8
    Format : DTS
    Format/Info : Digital Theater Systems
    Mode : 16
    Format settings, Endianness : Big
    Codec ID : A_DTS
    Duration : 2h 3mn
    Bit rate mode : Constant
    Bit rate : 1 509 Kbps
    Channel count : 6 channels
    Channel positions : Front: L C R, Side: L R, LFE
    Sampling rate : 48.0 KHz
    Bit depth : 24 bits
    Compression mode : Lossy
    Stream size : 1.30 GiB (6%)
    Title : Original
    Language : English
    Default : No
    Forced : No
    Audio #9
    ID : 9
    Format : AC-3
    Format/Info : Audio Coding 3
    Mode extension : CM (complete main)
    Format settings, Endianness : Big
    Codec ID : A_AC3
    Duration : 2h 3mn
    Bit rate mode : Constant
    Bit rate : 224 Kbps
    Channel count : 2 channels
    Channel positions : Front: L R
    Sampling rate : 48.0 KHz
    Bit depth : 16 bits
    Compression mode : Lossy
    Stream size : 198 MiB (1%)
    Title : Commentary by Ridley Scott
    Language : English
    Default : No
    Forced : No
    Audio #10
    ID : 10
    Format : AC-3
    Format/Info : Audio Coding 3
    Mode extension : CM (complete main)
    Format settings, Endianness : Big
    Codec ID : A_AC3
    Duration : 2h 3mn
    Bit rate mode : Constant
    Bit rate : 224 Kbps
    Channel count : 2 channels
    Channel positions : Front: L R
    Sampling rate : 48.0 KHz
    Bit depth : 16 bits
    Compression mode : Lossy
    Stream size : 198 MiB (1%)
    Title : Commentary by Jon Spaihts Damon Lindelof
    Language : English
    Default : No
    Forced : No
    Text #11
    ID : 11
    Format : UTF-8
    Codec ID : S_TEXT/UTF8
    Codec ID/Info : UTF-8 Plain Text
    Title : Forced
    Language : Russian
    Default : Yes
    Forced : No
    Text #12
    ID : 12
    Format : UTF-8
    Codec ID : S_TEXT/UTF8
    Codec ID/Info : UTF-8 Plain Text
    Title : Full BD
    Language : Russian
    Default : No
    Forced : No
    Text #13
    ID : 13
    Format : UTF-8
    Codec ID : S_TEXT/UTF8
    Codec ID/Info : UTF-8 Plain Text
    Title : Full Voronine
    Language : Russian
    Default : No
    Forced : No
    Text #14
    ID : 14
    Format : UTF-8
    Codec ID : S_TEXT/UTF8
    Codec ID/Info : UTF-8 Plain Text
    Title : Full 107miller
    Language : Russian
    Default : No
    Forced : No
    Text #15
    ID : 15
    Format : UTF-8
    Codec ID : S_TEXT/UTF8
    Codec ID/Info : UTF-8 Plain Text
    Title : Full Stevvie
    Language : Russian
    Default : No
    Forced : No
    Text #16
    ID : 16
    Format : UTF-8
    Codec ID : S_TEXT/UTF8
    Codec ID/Info : UTF-8 Plain Text
    Title : Full Doctor_Joker
    Language : Russian
    Default : No
    Forced : No
    Text #17
    ID : 17
    Format : UTF-8
    Codec ID : S_TEXT/UTF8
    Codec ID/Info : UTF-8 Plain Text
    Title : Full Commentary Ridley Scott
    Language : Russian
    Default : No
    Forced : No
    Text #18
    ID : 18
    Format : UTF-8
    Codec ID : S_TEXT/UTF8
    Codec ID/Info : UTF-8 Plain Text
    Title : Full Commentary Jon Spaihts Damon Lindelof
    Language : Russian
    Default : No
    Forced : No
    Text #19
    ID : 19
    Format : UTF-8
    Codec ID : S_TEXT/UTF8
    Codec ID/Info : UTF-8 Plain Text
    Title : Forced
    Language : Ukrainian
    Default : No
    Forced : No
    Text #20
    ID : 20
    Format : UTF-8
    Codec ID : S_TEXT/UTF8
    Codec ID/Info : UTF-8 Plain Text
    Title : Full BD
    Language : Ukrainian
    Default : No
    Forced : No
    Text #21
    ID : 21
    Format : UTF-8
    Codec ID : S_TEXT/UTF8
    Codec ID/Info : UTF-8 Plain Text
    Title : Full
    Language : English
    Default : No
    Forced : No
    Text #22
    ID : 22
    Format : UTF-8
    Codec ID : S_TEXT/UTF8
    Codec ID/Info : UTF-8 Plain Text
    Title : SDH
    Language : English
    Default : No
    Forced : No
    Menu
    00:00:00.000 : en:00:00:00.000
    00:05:13.146 : en:00:05:13.146
    00:07:44.881 : en:00:07:44.881
    00:11:31.524 : en:00:11:31.524
    00:15:09.784 : en:00:15:09.784
    00:20:04.912 : en:00:20:04.912
    00:22:32.810 : en:00:22:32.810
    00:27:43.120 : en:00:27:43.120
    00:31:57.833 : en:00:31:57.833
    00:34:10.840 : en:00:34:10.840
    00:37:53.229 : en:00:37:53.229
    00:40:45.360 : en:00:40:45.360
    00:45:49.330 : en:00:45:49.330
    00:48:47.925 : en:00:48:47.925
    00:50:23.062 : en:00:50:23.062
    00:53:56.400 : en:00:53:56.400
    00:56:32.222 : en:00:56:32.222
    00:59:31.610 : en:00:59:31.610
    01:01:29.185 : en:01:01:29.185
    01:04:17.562 : en:01:04:17.562
    01:06:01.457 : en:01:06:01.457
    01:08:57.884 : en:01:08:57.884
    01:11:13.519 : en:01:11:13.519
    01:15:10.631 : en:01:15:10.631
    01:17:06.038 : en:01:17:06.038
    01:25:02.306 : en:01:25:02.306
    01:27:09.349 : en:01:27:09.349
    01:30:10.363 : en:01:30:10.363
    01:32:43.725 : en:01:32:43.725
    01:35:23.134 : en:01:35:23.134
    01:37:46.861 : en:01:37:46.861
    01:40:46.374 : en:01:40:46.374
    01:43:46.220 : en:01:43:46.220
    01:48:28.794 : en:01:48:28.794
    01:52:08.096 : en:01:52:08.096
    01:58:06.288 : en:01:58:06.288

    Размер скачиваемого торрента: 20.50 GB (22012445156 Bytes)

    Прометей / Prometheus (2012) BDRip 1080p от GORESEWAGE | 3D-Video торрент скачать бесплатно
    загрузка...
    Рейтинг →
     (голосов: 1, оценка 3/5, голосовать можно 1 раз )

    Другие торренты по теме:

  • Прометей / Prometheus (2012) BDRip 1080p | 60 fps
  • Мэри Шелли - Франкенштейн, или Современный Прометей (2010) MP3
  • Прометей / Prometheus (2012) BDRip 720p | 60 fps | D, A скачать через торрент бесплатно
  • Прометей / Prometheus (2012) BDRip 1080p | FAN Cut скачать через торрент бесплатно
  • OST - Прометей / Prometheus (Expanded) (2012) MP3 скачать через торрент бесплатно
  • Прометей / Prometheus (2012) BDRemux 1080p от GORESEWAGE
  • Прометей / Prometheus (2012) BDRip 1080p от GORESEWAGE
  • Прометей / Prometheus (2012) BDRip 720p от GORESEWAGE


    • Комментарии (0):

      Информация

      Информация

        Посетители, находящиеся в группе Гости, не могут оставлять комментарии в данной новости.

        ↓ Меню



        ↓ Опрос

        А Вы добавили сайт в закладки?
        Да
        Не


        Top 10 за месяц (Фильмы)