.
Авторизация | Регистрация
Хочешь лучшие торренты? Добавь свой email!
Добавить
» » Запрещённый приём / Sucker Punch (2011) BDRemux 1080p от GORESEWAGE | Extended Cut скачать торрент бесплатно




    Запрещённый приём / Sucker Punch (2011) BDRemux 1080p от GORESEWAGE | Extended Cut скачать торрент бесплатно

    Опубликовал: Админ | Дата: 27-02-2015, 11:10 | Просмотров: 306



    Русское название: Запрещённый приём
    Русское название в мировом прокате: Sucker Punch
    Создали в: 2011
    Снималось в: США, Канада
    Категория жанра: фэнтези, боевик, триллер, приключения
    Время просмотра: 02:07:30
    Перевод текста 1: Профессиональный (дублированный) DVO Кубик в кубе (на расширенные сцены)
    Перевод текста 2: Профессиональный (дублированный) VO acolith (на расширенные сцены)
    Перевод текста 3: Профессиональный (двухголосый закадровый) Кубик в кубе
    Перевод текста 4: Авторский (одноголосый закадровый) А. Гаврилов
    Перевод текста 5: Одноголосый закадровый acolith
    Перевод текста 6: Одноголосый закадровый Doctor_Joker (Алексей Матвеев)
    Перевод текста 7: Одноголосый закадровый С. Рапсодов
    Перевод текста 8: Профессиональный (дублированный) Ukr
    Оригинальная аудиодорожка: Английская
    Субтитры: Русские (Forced Voronine, Full Voronine, SDH Voronine, Full Doctor_Joker), английские (Full, SDH)
    Киностудия: Warner Bros., Legendary Pictures, Cruel Unusual Films

    Главный режиссёр: Зак Снайдер / Zack Snyder

    Актеры: Эмили Браунинг, Эбби Корниш, Джена Мэлоун, Ванесса Энн Хадженс, Джейми Чунг, Карла Гуджино, Оскар Айзек, Джон Хэмм, Скотт Гленн, Ричард Цетрон и др.

    Сюжет: Действие развернётся в 1950 году. Молодую девушку по настоянию её злодейского отчима определяют в больницу для душевнобольных. Она выдумывает сказочный мир, где и начинает планировать свой побег - для этого ей нужно раздобыть пять предметов.



    Sample

    Качество фильма: BDRemux 1080p (Sucker Punch Extended Cut 2011 BluRay 1080p AVC DTS-HD MA5.1-CHDBits)
    Контейнер: MKV
    Информация о видео кодек: MPEG-4 AVC Video
    Информация о звуке кодек: DTS-HD MA / DTS / AC3
    Информация о видео: MPEG-4 AVC Video / 23878 kbps / 1920x1080p / 23,976 fps / 16:9 / High Profile 4.1
    Информация о звуке 1: Russian / AC3 / 5.1 / 48 kHz / 640 kbps / 16-bit / Dub DVO Кубик в кубе
    Информация о звуке 2: Russian / AC3 / 5.1 / 48 kHz / 384 kbps / 16-bit / Dub VO acolith
    Информация о звуке 3: Russian / DTS-HD MA / 5.1 / 48 kHz / 4144 kbps / 24-bit (DTS Core: 5.1 / 48 kHz / 1509 kbps / 24-bit) / DVO Кубик в кубе
    Информация о звуке 4: Russian / DTS-HD MA / 5.1 / 48 kHz / 4107 kbps / 24-bit (DTS Core: 5.1 / 48 kHz / 1509 kbps / 24-bit) / AVO А. Гаврилов
    Информация о звуке 5: Russian / DTS / 5.1 / 48 kHz / 1536 kbps / 24-bit / VO acolith
    Информация о звуке 6: Russian / DTS / 5.1 / 48 kHz / 1536 kbps / 24-bit / VO Doctor_Joker (Алексей Матвеев)
    Информация о звуке 7: Russian / AC3 / 5.1 / 48 kHz / 640 kbps / 16-bit / VO С. Рапсодов
    Информация о звуке 8: Ukrainian / AC3 / 5.1 / 48 kHz / 640 kbps / 16-bit / Dub
    Информация о звуке 9: English / DTS-HD MA / 5.1 / 48 kHz / 4105 kbps / 24-bit (DTS Core: 5.1 / 48 kHz / 1509 kbps / 24-bit) / Original
    Навигация по главам: да

    Скриншоты для ознакомления

    MediaInfo
    C:/GORESEWAGE/Sucker Punch 2011 Extended Cut BDRemux 1080p GORESEWAGE.mkv
    General
    Unique ID : 239982623060757983715427255437719505975 (0xB48AF8D43D88225A9134336E234C0C37)
    Complete name : C:/GORESEWAGE/Sucker Punch 2011 Extended Cut BDRemux 1080p GORESEWAGE.mkv
    Format : Matroska
    Format version : Version 4 / Version 2
    File size : 36.8 GiB
    Duration : 2h 7mn
    Overall bit rate mode : Variable
    Overall bit rate : 41.4 Mbps
    Movie name : Sucker Punch 2011 Extended Cut BDRemux 1080p GORESEWAGE
    Encoded date : UTC 2014-02-03 18:38:06
    Writing application : mkvmerge v6.7.0 (;Back to the Ground;) 64bit built on Jan 8 2014 15:10:52
    Writing library : libebml v1.3.0 libmatroska v1.4.1
    Attachment : Yes
    Video #1
    ID : 1
    Format : AVC
    Format/Info : Advanced Video Codec
    Format profile : High@L4.1
    Format settings, CABAC : Yes
    Format settings, ReFrames : 2 frames
    Format settings, GOP : M=1, N=10
    Codec ID : V_MPEG4/ISO/AVC
    Duration : 2h 7mn
    Bit rate mode : Variable
    Width : 1 920 pixels
    Height : 1 080 pixels
    Display aspect ratio : 16:9
    Frame rate mode : Constant
    Frame rate : 23.976 fps
    Color space : YUV
    Chroma subsampling : 4:2:0
    Bit depth : 8 bits
    Scan type : Progressive
    Title : Sucker Punch 2011 Extended Cut BDRemux 1080p GORESEWAGE
    Language : English
    Default : Yes
    Forced : No
    Audio #2
    ID : 2
    Format : AC-3
    Format/Info : Audio Coding 3
    Mode extension : CM (complete main)
    Format settings, Endianness : Big
    Codec ID : A_AC3
    Duration : 2h 7mn
    Bit rate mode : Constant
    Bit rate : 640 Kbps
    Channel count : 6 channels
    Channel positions : Front: L C R, Side: L R, LFE
    Sampling rate : 48.0 KHz
    Bit depth : 16 bits
    Compression mode : Lossy
    Stream size : 584 MiB (2%)
    Title : Dub DVO Кубик в кубе
    Language : Russian
    Default : Yes
    Forced : No
    Audio #3
    ID : 3
    Format : AC-3
    Format/Info : Audio Coding 3
    Mode extension : CM (complete main)
    Format settings, Endianness : Big
    Codec ID : A_AC3
    Duration : 2h 7mn
    Bit rate mode : Constant
    Bit rate : 384 Kbps
    Channel count : 6 channels
    Channel positions : Front: L C R, Side: L R, LFE
    Sampling rate : 48.0 KHz
    Bit depth : 16 bits
    Compression mode : Lossy
    Stream size : 350 MiB (1%)
    Title : Dub VO acolith
    Language : Russian
    Default : No
    Forced : No
    Audio #4
    ID : 4
    Format : DTS
    Format/Info : Digital Theater Systems
    Format profile : MA / Core
    Mode : 16
    Format settings, Endianness : Big
    Codec ID : A_DTS
    Duration : 2h 7mn
    Bit rate mode : Variable
    Bit rate : Unknown / 1 509 Kbps
    Channel count : 6 channels
    Channel positions : Front: L C R, Side: L R, LFE
    Sampling rate : 48.0 KHz
    Bit depth : 24 bits
    Compression mode : Lossless / Lossy
    Title : DVO Кубик в кубе
    Language : Russian
    Default : No
    Forced : No
    Audio #5
    ID : 5
    Format : DTS
    Format/Info : Digital Theater Systems
    Format profile : MA / Core
    Mode : 16
    Format settings, Endianness : Big
    Codec ID : A_DTS
    Duration : 2h 7mn
    Bit rate mode : Variable
    Bit rate : Unknown / 1 509 Kbps
    Channel count : 6 channels
    Channel positions : Front: L C R, Side: L R, LFE
    Sampling rate : 48.0 KHz
    Bit depth : 24 bits
    Compression mode : Lossless / Lossy
    Title : AVO Гаврилов
    Language : Russian
    Default : No
    Forced : No
    Audio #6
    ID : 6
    Format : DTS
    Format/Info : Digital Theater Systems
    Mode : 16
    Format settings, Endianness : Big
    Codec ID : A_DTS
    Duration : 2h 7mn
    Bit rate mode : Constant
    Bit rate : 1 509 Kbps
    Channel count : 6 channels
    Channel positions : Front: L C R, Side: L R, LFE
    Sampling rate : 48.0 KHz
    Bit depth : 24 bits
    Compression mode : Lossy
    Stream size : 1.34 GiB (4%)
    Title : VO acolith
    Language : Russian
    Default : No
    Forced : No
    Audio #7
    ID : 7
    Format : DTS
    Format/Info : Digital Theater Systems
    Mode : 16
    Format settings, Endianness : Big
    Codec ID : A_DTS
    Duration : 2h 7mn
    Bit rate mode : Constant
    Bit rate : 1 509 Kbps
    Channel count : 6 channels
    Channel positions : Front: L C R, Side: L R, LFE
    Sampling rate : 48.0 KHz
    Bit depth : 24 bits
    Compression mode : Lossy
    Stream size : 1.34 GiB (4%)
    Title : VO Doctor_Joker (Алексей Матвеев)
    Language : Russian
    Default : No
    Forced : No
    Audio #8
    ID : 8
    Format : AC-3
    Format/Info : Audio Coding 3
    Mode extension : CM (complete main)
    Format settings, Endianness : Big
    Codec ID : A_AC3
    Duration : 2h 7mn
    Bit rate mode : Constant
    Bit rate : 448 Kbps
    Channel count : 6 channels
    Channel positions : Front: L C R, Side: L R, LFE
    Sampling rate : 48.0 KHz
    Bit depth : 16 bits
    Compression mode : Lossy
    Stream size : 409 MiB (1%)
    Title : VO С. Рапсодов
    Language : Russian
    Default : No
    Forced : No
    Audio #9
    ID : 9
    Format : AC-3
    Format/Info : Audio Coding 3
    Mode extension : CM (complete main)
    Format settings, Endianness : Big
    Codec ID : A_AC3
    Duration : 2h 7mn
    Bit rate mode : Constant
    Bit rate : 640 Kbps
    Channel count : 6 channels
    Channel positions : Front: L C R, Side: L R, LFE
    Sampling rate : 48.0 KHz
    Bit depth : 16 bits
    Compression mode : Lossy
    Stream size : 584 MiB (2%)
    Title : Dub Ukr
    Language : Ukrainian
    Default : No
    Forced : No
    Audio #10
    ID : 10
    Format : DTS
    Format/Info : Digital Theater Systems
    Format profile : MA / Core
    Mode : 16
    Format settings, Endianness : Big
    Codec ID : A_DTS
    Duration : 2h 7mn
    Bit rate mode : Variable
    Bit rate : Unknown / 1 509 Kbps
    Channel count : 6 channels
    Channel positions : Front: L C R, Side: L R, LFE
    Sampling rate : 48.0 KHz
    Bit depth : 24 bits
    Compression mode : Lossless / Lossy
    Title : Original
    Language : English
    Default : No
    Forced : No
    Text #11
    ID : 11
    Format : UTF-8
    Codec ID : S_TEXT/UTF8
    Codec ID/Info : UTF-8 Plain Text
    Title : Forced Voronine
    Language : Russian
    Default : Yes
    Forced : No
    Text #12
    ID : 12
    Format : UTF-8
    Codec ID : S_TEXT/UTF8
    Codec ID/Info : UTF-8 Plain Text
    Title : Full Voronine
    Language : Russian
    Default : No
    Forced : No
    Text #13
    ID : 13
    Format : UTF-8
    Codec ID : S_TEXT/UTF8
    Codec ID/Info : UTF-8 Plain Text
    Title : SDH Voronine
    Language : Russian
    Default : No
    Forced : No
    Text #14
    ID : 14
    Format : UTF-8
    Codec ID : S_TEXT/UTF8
    Codec ID/Info : UTF-8 Plain Text
    Title : Full Doctor_Joker
    Language : Russian
    Default : No
    Forced : No
    Text #15
    ID : 15
    Format : UTF-8
    Codec ID : S_TEXT/UTF8
    Codec ID/Info : UTF-8 Plain Text
    Title : Full
    Language : English
    Default : No
    Forced : No
    Text #16
    ID : 16
    Format : UTF-8
    Codec ID : S_TEXT/UTF8
    Codec ID/Info : UTF-8 Plain Text
    Title : SDH
    Language : English
    Default : No
    Forced : No
    Menu
    00:00:00.000 : en:00:00:00.000
    00:05:59.985 : en:00:05:59.985
    00:12:25.703 : en:00:12:25.703
    00:24:59.456 : en:00:24:59.456
    00:36:15.590 : en:00:36:15.590
    00:42:35.720 : en:00:42:35.720
    00:57:42.501 : en:00:57:42.501
    01:01:29.936 : en:01:01:29.936
    01:21:13.118 : en:01:21:13.118
    01:37:03.526 : en:01:37:03.526
    01:53:19.543 : en:01:53:19.543
    02:01:45.757 : en:02:01:45.757

    Размер скачиваемого торрента: 36.85 GB (39565820940 Bytes)

    Запрещённый приём / Sucker Punch (2011) BDRemux 1080p от GORESEWAGE | Extended Cut торрент скачать бесплатно
    загрузка...
    Рейтинг →
     (голосов: 1, оценка 5/5, голосовать можно 1 раз )

    Другие торренты по теме:

  • Запрещённый приём / Sucker Punch (2011) BDRip 720p от GORESEWAGE | Extended Cut
  • Запрещённый приём / Sucker Punch (2011) BDRip 1080p от GORESEWAGE | Extended Cut


    • Комментарии (0):

      Информация

      Информация

        Посетители, находящиеся в группе Гости, не могут оставлять комментарии в данной новости.

        ↓ Меню



        ↓ Опрос

        А Вы добавили сайт в закладки?
        Да
        Не


        Top 10 за месяц (Фильмы)