.
Авторизация | Регистрация
Хочешь лучшие торренты? Добавь свой email!
Добавить
» » Отпуск на Ривьере / That Riviera Touch (1966) DVDRip от NovaLan скачать торрент бесплатно




    Отпуск на Ривьере / That Riviera Touch (1966) DVDRip от NovaLan скачать торрент бесплатно

    Опубликовал: Админ | Дата: 27-02-2015, 11:10 | Просмотров: 334





    Снималось в: Великобритания
    Создали в: Rank Organisation
    Категория жанра: Комедия
    Создали в: 1966

    Время просмотра: 01:33:50


    Перевод текста: Авторский (Белов)

    Оригинальная аудиодорожка: Английская

    Главный режиссер: Клифф Оуэн


    Актеры: Эрик Морекемб, Эрни Уайз, Сюзанн Ллойд, Пол Стассино, Арман Местраль, Джералд Лосон, Джордж Пэстелл, Александра Бастедо, Николь Шелби


    Сюжет: Отдых на юге Франции не пошел на пользу двум служащим дорожной полиции, Эрику и Эрни. Они оказываются втянутыми в махинации с кражей и контрабандой драгоценностей, а так же разборки между конкурирующими криминальными структурами.



    Исходник: DVD5 R2

    Тип релиза: DVDRip

    Контейнер: AVI


    Информация о видео: XviD, 1832 Кбит/с, 704х528
    Информация о звуке: Русский, английский (АС3, 2 ch, 192 Кбит/с)



    MediaInfo
    Общее
    Полное имя : D:1АААОтпуск на Ривьере.avi
    Формат : AVI
    Формат/Информация : Audio Video Interleave
    Размер файла : 1,46 Гбайт
    Продолжительность : 1 ч. 33 м.
    Общий поток : 2226 Кбит/сек
    Программа кодирования : VirtualDubMod 1.5.10.2 (build 2540/release)
    Библиотека кодирования : VirtualDubMod build 2540/release

    Видео
    Идентификатор : 0
    Формат : MPEG-4 Visual
    Профиль формата : Advanced Simple@L5
    Параметр BVOP формата : 2
    Параметр QPel формата : Нет
    Параметр GMC формата : Без точки перехода
    Параметр матрицы формата : Default (MPEG)
    Режим смешивания : Сжатый битовый поток
    Идентификатор кодека : XVID
    Идентификатор кодека/Подсказка : XviD
    Продолжительность : 1 ч. 33 м.
    Битрейт : 1827 Кбит/сек
    Ширина : 704 пикселя
    Высота : 528 пикселей
    Соотношение сторон : 4:3
    Частота кадров : 23,976 кадра/сек
    Цветовое пространство : YUV
    Субдискретизация насыщенности : 4:2:0
    Битовая глубина : 8 бит
    Тип развёртки : Прогрессивная
    Метод сжатия : С потерями
    Бит/(Пиксели*Кадры) : 0.205
    Размер потока : 1,20 Гбайт (82%)
    Библиотека кодирования : XviD 1.2.1 (UTC 2008-12-04)

    Аудио #1
    Идентификатор : 1
    Формат : AC-3
    Формат/Информация : Audio Coding 3
    Расширение режима : CM (complete main)
    Параметр Endianness формата : Big
    Идентификатор кодека : 2000
    Продолжительность : 1 ч. 33 м.
    Вид битрейта : Постоянный
    Битрейт : 192 Кбит/сек
    Каналы : 2 канала
    Расположение каналов : Front: L R
    Частота : 48,0 КГц
    Битовая глубина : 16 бит
    Метод сжатия : С потерями
    Размер потока : 129 Мбайт (9%)
    Выравнивание : Разделение по промежуткам
    Продолжительность промежутка : 42 мс. (1,00 видеокадр)
    Время предзагрузки промежутка : 500 мс.

    Аудио #2
    Идентификатор : 2
    Формат : AC-3
    Формат/Информация : Audio Coding 3
    Расширение режима : CM (complete main)
    Параметр Endianness формата : Big
    Идентификатор кодека : 2000
    Продолжительность : 1 ч. 33 м.
    Вид битрейта : Постоянный
    Битрейт : 192 Кбит/сек
    Каналы : 2 канала
    Расположение каналов : Front: L R
    Частота : 48,0 КГц
    Битовая глубина : 16 бит
    Метод сжатия : С потерями
    Размер потока : 129 Мбайт (9%)
    Выравнивание : Разделение по промежуткам
    Продолжительность промежутка : 42 мс. (1,00 видеокадр)
    Время предзагрузки промежутка : 500 мс.







    Скриншоты для ознакомления




    Релиз группа:

    Автор рипа:
    Залил: YArl
    Размер скачиваемого торрента: 1.46 GB (1566390272 Bytes)

    Отпуск на Ривьере / That Riviera Touch (1966) DVDRip от NovaLan торрент скачать бесплатно
    загрузка...
    Рейтинг →
     (голосов: 1, оценка 4/5, голосовать можно 1 раз )

    Другие торренты по теме:

  • Отпуск по обмену / The Holiday (2006) BDRip 720p от R.G. GoldenShara | Лицензия
  • OST - Отпуск по обмену / The Holiday (2007) MP3
  • Каникулы / Отпуск / Holiday / Holli-dei (2006) DVDRip от CINEMANIA | L2 скачать через торрент бесплатно
  • Отпуск в наручниках / Holiday in Handcuffs (2007) SATRip скачать через торрент бесплатно
  • Отпуск по обмену / The Holiday скачать через торрент бесплатно
  • Отпуск с папой
  • Отпуск по ранению (1-4 серии из 4) / 2015 / РУ / SATRip
  • Вечный отпуск (2016) SATRip


    • Комментарии (0):

      Информация

      Информация

        Посетители, находящиеся в группе Гости, не могут оставлять комментарии в данной новости.

        ↓ Меню



        ↓ Опрос

        А Вы добавили сайт в закладки?
        Да
        Не


        Top 10 за месяц (Фильмы)