.
Авторизация | Регистрация
Хочешь лучшие торренты? Добавь свой email!
Добавить
» » Риддик / Riddick (2013) BDRip 720p | Extended Cut | iTunes, Гаврилов скачать торрент бесплатно




    Риддик / Riddick (2013) BDRip 720p | Extended Cut | iTunes, Гаврилов скачать торрент бесплатно

    Опубликовал: Админ | Дата: 27-02-2015, 11:10 | Просмотров: 244



    Русское название: Риддик
    Русское название в мировом прокате: Riddick
    Создали в: 2013
    Категория жанра: Фантастика, боевик, триллер
    Снималось в: США, One Race Productions, Radar Pictures Inc.
    Время просмотра: 02:06:47
    Перевод текста: Дублированный, авторский
    Субтитры: Русские, английские

    Главный режиссер: Дэвид Туи

    Актеры: Вин Дизель, Хорди Молья, Мэтью Нэйбл, Кэти Сакхофф, Дэйв Батиста, Букем Вудбайн, Рауль Трухильо, Конрад Пла, Дэнни Бланко, Карл Урбан, Ноа Дэнби, Нил Напье, Нолан Фанк, Андреас Апергис, Кери Хилсон, Шарли Мари Дюпон, Ян Герсте, Антуанетта Никпрелаж, Александра Соколовская

    Сюжет фильма:
    Преданный своими и брошенный умирать на пустынной планете, Риддик сражается с хищниками за жизнь и становится сильнее и опаснее себя прежнего. Открывшие на него охоту галактические наемники оказываются пешками в грандиозном плане отмщения. С врагами, возникающими на его пути тогда, когда это нужно самому Риддику, он начинает поход во имя мести, чтобы в конечном счете вернуться на родную Фурию и спасти ее от уничтожения.



    Качество фильма: BDRip (720p)
    Информация о видео: MPEG-4 AVC, 6501 Кбит/с, 1280x534
    Информация о звуке 1: Russian: 48 kHz, AC3, 3/2 (L,C,R,l,r) LFE ch, ~384.00 kbps avg |Дубляж iTunes Любительское двухголосое Paradox|
    Информация о звуке 2: Russian: 48 kHz, DTS, 3/2 (L,C,R,l,r) LFE ch, ~1536.00 kbps avg |А.Гаврилов|
    Информация о звуке 3: English: 48 kHz, DTS, 3/2 (L,C,R,l,r) LFE ch, ~1536.00 kbps avg
    Сохранены оригинальные чаптеры как на Blu-ray.

    Доп.инфа

    Сборка рипа: Womanizer0
    За перевод Гаврилова большое спасибо пользователям форума hdtracker:
    rydanes, kinobbk, chefchef, Denis2251, Hattori Hanzo, Loki, _MyxAmoP_, Letyoha3, Brown15, Luka69, Gross1978, Skibichok, foxlight, GaryH, milocerd0v, -Джосс-, Pain_70, KerkP, SavineX, karantin66, ZeRoNe, GansAn, mamachucha66, v111o, kondratzx, TvarYuri, Vimann, Wolf_Larsen, furria62, dunhill200, Chistobaev, lexal, Guyver, apollion, Role, banan87, LAVR, Tio, maximus1099, hulahup, Shumway, Tehnar, Jiraya87, nimph, Видео, dark1982, shtift, carter64, vadamk, zork, feldeger, sawyer4, Андрей, AndreyTula, rammzez, Consul, Диммон, therox, saenwert, Schmulke, Ace34, olegsoleg, spacenoise, anvic, Slimka, DrCrane, Gangster, Floydman, Iron Man, TOMAN, denis_mgn_1987, DB73 .
    MediaInfo
    Format : Matroska
    File size : 8.94 GiB
    Duration : 2h 6mn
    Overall bit rate : 10.1 Mbps
    Encoded date : UTC 2014-02-01 15:22:06
    Writing application : mkvmerge v4.9.1 (;Ich will;) built on Jul 11 2011 23:53:15
    Writing library : libebml v1.2.1 libmatroska v1.1.1

    Video
    ID : 1
    Format : AVC
    Format/Info : Advanced Video Codec
    Format profile : High@L4.1
    Format settings, CABAC : Yes
    Format settings, ReFrames : 12 frames
    Codec ID : V_MPEG4/ISO/AVC
    Duration : 2h 6mn
    Bit rate : 6 492 Kbps
    Width : 1 280 pixels
    Height : 534 pixels
    Display aspect ratio : 2.35:1
    Frame rate : 23.976 fps
    Color space : YUV
    Chroma subsampling : 4:2:0
    Bit depth : 8 bits
    Scan type : Progressive
    Bits/(Pixel*Frame) : 0.396
    Stream size : 5.75 GiB (64%)
    Title : x264
    Writing library : x264 core 140 r2377 1ca7bb9
    Encoding settings : cabac=1 / ref=12 / deblock=1:-3:-3 / analyse=0x3:0x113 / me=tesa / subme=11 / psy=1 / psy_rd=0.94:0.00 / mixed_ref=1 / me_range=32 / chroma_me=1 / trellis=2 / 8x8dct=1 / cqm=0 / deadzone=21,11 / fast_pskip=0 / chroma_qp_offset=-2 / threads=12 / lookahead_threads=2 / sliced_threads=0 / nr=0 / decimate=1 / interlaced=0 / bluray_compat=0 / constrained_intra=0 / bframes=8 / b_pyramid=2 / b_adapt=2 / b_bias=0 / direct=3 / weightb=1 / open_gop=0 / weightp=2 / keyint=240 / keyint_min=23 / scenecut=40 / intra_refresh=0 / rc_lookahead=80 / rc=crf / mbtree=1 / crf=14.5 / qcomp=0.70 / qpmin=0 / qpmax=69 / qpstep=4 / vbv_maxrate=40000 / vbv_bufsize=40000 / crf_max=0.0 / nal_hrd=none / filler=0 / ip_ratio=1.40 / aq=1:0.90
    Language : English

    Audio #1
    ID : 2
    Format : AC-3
    Format/Info : Audio Coding 3
    Mode extension : CM (complete main)
    Codec ID : A_AC3
    Duration : 2h 6mn
    Bit rate mode : Constant
    Bit rate : 384 Kbps
    Channel(s) : 6 channels
    Channel positions : Front: L C R, Side: L R, LFE
    Sampling rate : 48.0 KHz
    Bit depth : 16 bits
    Compression mode : Lossy
    Stream size : 348 MiB (4%)
    Title : R5 Paradox
    Language : Russian

    Audio #2
    ID : 3
    Format : DTS
    Format/Info : Digital Theater Systems
    Codec ID : A_DTS
    Duration : 2h 6mn
    Bit rate mode : Constant
    Bit rate : 1 510 Kbps
    Channel(s) : 6 channels
    Channel positions : Front: L C R, Side: L R, LFE
    Sampling rate : 48.0 KHz
    Bit depth : 24 bits
    Compression mode : Lossy
    Stream size : 1.34 GiB (15%)
    Title : Гаврилов
    Language : Russian

    Audio #3
    ID : 4
    Format : DTS
    Format/Info : Digital Theater Systems
    Codec ID : A_DTS
    Duration : 2h 6mn
    Bit rate mode : Constant
    Bit rate : 1 510 Kbps
    Channel(s) : 6 channels
    Channel positions : Front: L C R, Side: L R, LFE
    Sampling rate : 48.0 KHz
    Bit depth : 24 bits
    Compression mode : Lossy
    Stream size : 1.34 GiB (15%)
    Title : DTS-CORE 1536K ENG
    Language : English

    Text #1
    ID : 5
    Format : UTF-8
    Codec ID : S_TEXT/UTF8
    Codec ID/Info : UTF-8 Plain Text
    Language : Russian

    Text #2
    ID : 6
    Format : UTF-8
    Codec ID : S_TEXT/UTF8
    Codec ID/Info : UTF-8 Plain Text
    Title : full Voronine
    Language : Russian

    Text #3
    ID : 7
    Format : UTF-8
    Codec ID : S_TEXT/UTF8
    Codec ID/Info : UTF-8 Plain Text
    Language : English

    Menu
    00:00:00.000 : en:00:00:00.000
    00:05:35.418 : en:00:05:35.418
    00:12:10.521 : en:00:12:10.521
    00:23:27.364 : en:00:23:27.364
    00:27:56.425 : en:00:27:56.425
    00:32:11.221 : en:00:32:11.221
    00:38:03.698 : en:00:38:03.698
    00:44:20.283 : en:00:44:20.283
    00:48:40.876 : en:00:48:40.876
    00:56:19.668 : en:00:56:19.668
    01:01:16.673 : en:01:01:16.673
    01:07:35.093 : en:01:07:35.093
    01:15:23.436 : en:01:15:23.436
    01:19:58.836 : en:01:19:58.836
    01:26:51.832 : en:01:26:51.832
    01:31:27.107 : en:01:31:27.107
    01:39:32.717 : en:01:39:32.717
    01:45:32.701 : en:01:45:32.701
    01:53:45.652 : en:01:53:45.652
    02:02:56.160 : en:02:02:56.160
    Скриншоты для ознакомления

    Размер скачиваемого торрента: 8.94 GB (9601420270 Bytes)

    Риддик / Riddick (2013) BDRip 720p | Extended Cut | iTunes, Гаврилов торрент скачать бесплатно
    загрузка...
    Рейтинг →
     (голосов: 1, оценка 4/5, голосовать можно 1 раз )

    Другие торренты по теме:

  • Риддик / Riddick (2013) HD-720p | D | Трейлер
  • Риддик / Riddick (2013) CAMRip
  • Риддик / Riddick (2013) CAMRip *PROPER*
  • Риддик / Riddic (2013) CAMRip *PROPER* скачать через торрент бесплатно
  • Риддик / Riddick (2013) WEBRip | Звук с TS скачать через торрент бесплатно
  • Риддик / Riddick (2013) WEBRip | L1 скачать через торрент бесплатно
  • Риддик / Riddick (2013) DVDRip | Звук с TS
  • Риддик / Riddick (2013) DVDRip | Чистый звук скачать через торрент бесплатно


    • Комментарии (0):

      Информация

      Информация

        Посетители, находящиеся в группе Гости, не могут оставлять комментарии в данной новости.

        ↓ Меню



        ↓ Опрос

        А Вы добавили сайт в закладки?
        Да
        Не


        Top 10 за месяц (Фильмы)