.
Авторизация | Регистрация
Хочешь лучшие торренты? Добавь свой email!
Добавить
» » Великолепная пара / The Magnificent Two (1967) DVDRip - от NovaLan скачать торрент бесплатно




    Великолепная пара / The Magnificent Two (1967) DVDRip - от NovaLan скачать торрент бесплатно

    Опубликовал: Админ | Дата: 27-02-2015, 11:10 | Просмотров: 261




    Снималось в: Великобритания
    Создали в: Rank Organisation
    Категория жанра: Комедия
    Создали в: 1967

    Время просмотра: 01:31:28


    Перевод текста: Авторский (Белов)

    Оригинальная аудиодорожка: Английская

    Главный режиссер: Клифф Оуэн


    Актеры: Эрик Морекемб, Эрни Уайз, Маргит Саад, Виржилиу Тейшейра, Сесил Паркер, Изобель Блэк, Мартин Бенсон, Майкл Годфри, Сью Сильвен, Генри Белтран


    Сюжет: Два менеджера, Эрик и Эрни, для продвижения своей продукции решили посетить одну маленькую южноамериканскую страну. На их беду в стране очередная революция. Правительство во главе с диктатором Диасом сошлось в схватке с мятежниками под предводительством Тореса. Тореса убивают, а мятежники, по случаю, прихватывают Эрика, как две капли воды похожего на погибшего предводителя. Но это только начало интриги и приключений двух друзей.



    Исходник: DVD5 R2

    Тип релиза: DVDRip

    Контейнер: AVI


    Информация о видео: XviD, 1892 Кбит/с, 720х400
    Информация о звуке: Русский, английский (АС3, 2 ch, 192 Кбит/с)



    MediaInfo
    Общее
    Полное имя : D:1АААВеликолепная пара.avi
    Формат : AVI
    Формат/Информация : Audio Video Interleave
    Размер файла : 1,46 Гбайт
    Продолжительность : 1 ч. 31 м.
    Общий поток : 2284 Кбит/сек
    Программа кодирования : VirtualDubMod 1.5.10.2 (build 2540/release)
    Библиотека кодирования : VirtualDubMod build 2540/release

    Видео
    Идентификатор : 0
    Формат : MPEG-4 Visual
    Профиль формата : Advanced Simple@L5
    Параметр BVOP формата : 2
    Параметр QPel формата : Нет
    Параметр GMC формата : Без точки перехода
    Параметр матрицы формата : Default (MPEG)
    Режим смешивания : Сжатый битовый поток
    Идентификатор кодека : XVID
    Идентификатор кодека/Подсказка : XviD
    Продолжительность : 1 ч. 31 м.
    Битрейт : 1886 Кбит/сек
    Ширина : 720 пикселей
    Высота : 400 пикселей
    Соотношение сторон : 16:9
    Частота кадров : 23,976 кадра/сек
    Цветовое пространство : YUV
    Субдискретизация насыщенности : 4:2:0
    Битовая глубина : 8 бит
    Тип развёртки : Прогрессивная
    Метод сжатия : С потерями
    Бит/(Пиксели*Кадры) : 0.273
    Размер потока : 1,20 Гбайт (83%)
    Библиотека кодирования : XviD 1.2.1 (UTC 2008-12-04)

    Аудио #1
    Идентификатор : 1
    Формат : AC-3
    Формат/Информация : Audio Coding 3
    Расширение режима : CM (complete main)
    Параметр Endianness формата : Big
    Идентификатор кодека : 2000
    Продолжительность : 1 ч. 31 м.
    Вид битрейта : Постоянный
    Битрейт : 192 Кбит/сек
    Каналы : 2 канала
    Расположение каналов : Front: L R
    Частота : 48,0 КГц
    Битовая глубина : 16 бит
    Метод сжатия : С потерями
    Размер потока : 126 Мбайт (8%)
    Выравнивание : Разделение по промежуткам
    Продолжительность промежутка : 42 мс. (1,00 видеокадр)
    Время предзагрузки промежутка : 500 мс.

    Аудио #2
    Идентификатор : 2
    Формат : AC-3
    Формат/Информация : Audio Coding 3
    Расширение режима : CM (complete main)
    Параметр Endianness формата : Big
    Идентификатор кодека : 2000
    Продолжительность : 1 ч. 31 м.
    Вид битрейта : Постоянный
    Битрейт : 192 Кбит/сек
    Каналы : 2 канала
    Расположение каналов : Front: L R
    Частота : 48,0 КГц
    Битовая глубина : 16 бит
    Метод сжатия : С потерями
    Размер потока : 126 Мбайт (8%)
    Выравнивание : Разделение по промежуткам
    Продолжительность промежутка : 42 мс. (1,00 видеокадр)
    Время предзагрузки промежутка : 500 мс.







    Скриншоты для ознакомления




    Релиз группа:

    Автор рипа:
    Залил: YArl
    Размер скачиваемого торрента: 1.46 GB (1566898176 Bytes)

    Великолепная пара / The Magnificent Two (1967) DVDRip - от NovaLan торрент скачать бесплатно
    загрузка...
    Рейтинг →
     (голосов: 1, оценка 5/5, голосовать можно 1 раз )

    Другие торренты по теме:

  • Великолепная пара / The Magnificent Two (1967) DVDRip от Dego | А


    • Комментарии (0):

      Информация

      Информация

        Посетители, находящиеся в группе Гости, не могут оставлять комментарии в данной новости.

        ↓ Меню



        ↓ Опрос

        А Вы добавили сайт в закладки?
        Да
        Не


        Top 10 за месяц (Фильмы)