.
Авторизация | Регистрация
Хочешь лучшие торренты? Добавь свой email!
Добавить
» » Риддик / Riddick (2013) BDRemux 1080p | Unrated от GORESEWAGE скачать торрент бесплатно




    Риддик / Riddick (2013) BDRemux 1080p | Unrated от GORESEWAGE скачать торрент бесплатно

    Опубликовал: Админ | Дата: 27-02-2015, 11:10 | Просмотров: 281



    Русское название: Риддик
    Русское название в мировом прокате: Riddick
    Создали в: 2013
    Снималось в: США, Великобритания
    Категория жанра: фантастика, боевик, триллер
    Время просмотра: 02:06:47.641
    Перевод текста 1: Профессиональный (дублированный) iTunes Russia вставки DVO Paradox (на расширенные сцены)
    Перевод текста 2: Авторский (одноголосый закадровый) А. Гаврилов
    Оригинальная аудиодорожка: Английская
    Субтитры: Русские (Forced, Full Voronine), английские (SDH, SDH Colored)
    Киностудия: One Race Productions, Radar Pictures, Riddick Canada Productions

    Главный режиссёр: Дэвид Туи / David Twohy

    Актеры: Вин Дизель, Антуанетта Никпрелаж, Шарли Мари Дюпон, Александра Соколовская, Хорди Молья, Мэтью Нэйбл, Кэти Сакхофф, Дэйв Батиста, Букем Вудбайн, Рауль Трухильо, Конрад Пла, Дэнни Бланко, Карл Урбан и др.

    Сюжет: Преданный своими и брошенный умирать на пустынной планете, Риддик сражается с хищниками за жизнь и становится сильнее и опаснее себя прежнего. Открывшие на него охоту галактические наёмники оказываются пешками в грандиозном плане отмщения. С врагами, возникающими на его пути тогда, когда это нужно самому Риддику, он начинает поход во имя мести, чтобы в конечном счете вернуться на родную Фурию и спасти её от уничтожения.





    Качество фильма: BDRemux 1080p (Riddick 2013 UNRATED DC 2in1 BluRay 1080p AVC DTS-HD MA5.1-CHDBits)
    Контейнер: MKV
    Информация о видео кодек: MPEG-4 AVC Video
    Информация о звуке кодек: DTS-HD Master Audio / AC3
    Информация о видео: MPEG-4 AVC Video / 25374 kbps / 1920x1080p / 23,976 fps / 16:9 / High Profile 4.1
    Информация о звуке 1: Russian / AC3 / 5.1 / 48 kHz / 384 kbps / 16-bit / Dub iTunes Russia DVO Paradox
    Информация о звуке 2: Russian / DTS-HD Master Audio / 5.1 / 48 kHz / 3451 kbps / 24-bit (DTS Core: 5.1 / 48 kHz / 1536 kbps / 24-bit) / AVO А. Гаврилов
    Информация о звуке 3: English / DTS-HD Master Audio / 5.1 / 48 kHz / 3479 kbps / 24-bit (DTS Core: 5.1 / 48 kHz / 1536 kbps / 24-bit) / Original
    Информация о звуке 4: English / AC3 / 2.0 / 48 kHz / 192 kbps / 16-bit / Deive
    Навигация по главам: да

    Дополнительная информация

    * Перевод Андрея Гаврилова доступен благодаря пользователям HDTRacker: rydanes, kinobbk, chefchef, Denis2251, Hattori Hanzo, Loki, _MyxAmoP_, Letyoha3, Brown15, Luka69, Gross1978, Skibichok, foxlight, GaryH, milocerd0v, -Джосс-, Pain_70, KerkP, SavineX, karantin66, ZeRoNe, GansAn, mamachucha66, v111o, kondratzx, TvarYuri, Vimann, Wolf_Larsen, furria62, dunhill200, Chistobaev, lexal, Guyver, apollion, Role, banan87, LAVR, Tio, maximus1099, hulahup, Shumway, Tehnar, Jiraya87, nimph, Видео, dark1982, shtift, carter64, vadamk, zork, feldeger, sawyer4, Андрей, AndreyTula, rammzez, Consul, Диммон, therox, saenwert, Schmulke, Ace34, olegsoleg, spacenoise, anvic, Slimka, DrCrane, Gangster, Floydman, Iron Man, TOMAN, denis_mgn_1987, DB73.
    * Работа со звуком KpucTo161.

    Скриншот с названием фильма

    Скриншоты для ознакомления

    Полноразмерные постеры

    MediaInfo
    C:/GORESEWAGE/Riddick 2013 US Transfer Unrated Director;s Cut BDRemux 1080p GORESEWAGE.mkv
    General
    Unique ID : 202255043164346429179694010650554088342 (0x9828E786FA6F21D2AFB5DB558FA93B96)
    Complete name : C:/GORESEWAGE/Riddick 2013 US Transfer Unrated Director;s Cut BDRemux 1080p GORESEWAGE.mkv
    Format : Matroska
    Format version : Version 4 / Version 2
    File size : 29.6 GiB
    Duration : 2h 6mn
    Overall bit rate mode : Variable
    Overall bit rate : 33.4 Mbps
    Movie name : Riddick 2013 US Transfer Unrated Director;s Cut BDRemux 1080p GORESEWAGE
    Encoded date : UTC 2014-02-01 18:08:26
    Writing application : mkvmerge v6.7.0 (;Back to the Ground;) 64bit built on Jan 8 2014 15:10:52
    Writing library : libebml v1.3.0 libmatroska v1.4.1
    Attachment : Yes
    Video #1
    ID : 1
    Format : AVC
    Format/Info : Advanced Video Codec
    Format profile : High@L4.1
    Format settings, CABAC : Yes
    Format settings, ReFrames : 4 frames
    Format settings, GOP : M=3, N=12
    Codec ID : V_MPEG4/ISO/AVC
    Duration : 2h 6mn
    Bit rate mode : Variable
    Maximum bit rate : 33.0 Mbps
    Width : 1 920 pixels
    Height : 1 080 pixels
    Display aspect ratio : 16:9
    Frame rate mode : Constant
    Frame rate : 23.976 fps
    Color space : YUV
    Chroma subsampling : 4:2:0
    Bit depth : 8 bits
    Scan type : Progressive
    Title : Riddick 2013 US Transfer Unrated Director;s Cut BDRemux 1080p GORESEWAGE
    Language : English
    Default : Yes
    Forced : No
    Audio #2
    ID : 2
    Format : AC-3
    Format/Info : Audio Coding 3
    Mode extension : CM (complete main)
    Format settings, Endianness : Big
    Codec ID : A_AC3
    Duration : 2h 6mn
    Bit rate mode : Constant
    Bit rate : 384 Kbps
    Channel count : 6 channels
    Channel positions : Front: L C R, Side: L R, LFE
    Sampling rate : 48.0 KHz
    Bit depth : 16 bits
    Compression mode : Lossy
    Stream size : 348 MiB (1%)
    Title : Dub iTunes Russia DVO Paradox
    Language : Russian
    Default : Yes
    Forced : No
    Audio #3
    ID : 3
    Format : DTS
    Format/Info : Digital Theater Systems
    Format profile : MA / Core
    Mode : 16
    Format settings, Endianness : Big
    Codec ID : A_DTS
    Duration : 2h 6mn
    Bit rate mode : Variable
    Bit rate : Unknown / 1 509 Kbps
    Channel count : 6 channels
    Channel positions : Front: L C R, Side: L R, LFE
    Sampling rate : 48.0 KHz
    Bit depth : 24 bits
    Compression mode : Lossless / Lossy
    Title : AVO А. Гаврилов
    Language : Russian
    Default : No
    Forced : No
    Audio #4
    ID : 4
    Format : DTS
    Format/Info : Digital Theater Systems
    Format profile : MA / Core
    Mode : 16
    Format settings, Endianness : Big
    Codec ID : A_DTS
    Duration : 2h 6mn
    Bit rate mode : Variable
    Bit rate : Unknown / 1 509 Kbps
    Channel count : 6 channels
    Channel positions : Front: L C R, Side: L R, LFE
    Sampling rate : 48.0 KHz
    Bit depth : 24 bits
    Compression mode : Lossless / Lossy
    Title : Original
    Language : English
    Default : No
    Forced : No
    Audio #5
    ID : 5
    Format : AC-3
    Format/Info : Audio Coding 3
    Format profile : Dolby Digital
    Mode extension : CM (complete main)
    Format settings, Endianness : Big
    Codec ID : A_AC3
    Duration : 2h 6mn
    Bit rate mode : Constant
    Bit rate : 192 Kbps
    Channel count : 2 channels
    Channel positions : Front: L R
    Sampling rate : 48.0 KHz
    Bit depth : 16 bits
    Compression mode : Lossy
    Stream size : 174 MiB (1%)
    Title : Deive
    Language : English
    Default : No
    Forced : No
    Text #6
    ID : 6
    Format : UTF-8
    Codec ID : S_TEXT/UTF8
    Codec ID/Info : UTF-8 Plain Text
    Title : Forced
    Language : Russian
    Default : Yes
    Forced : No
    Text #7
    ID : 7
    Format : UTF-8
    Codec ID : S_TEXT/UTF8
    Codec ID/Info : UTF-8 Plain Text
    Title : Full Voronine
    Language : Russian
    Default : No
    Forced : No
    Text #8
    ID : 8
    Format : UTF-8
    Codec ID : S_TEXT/UTF8
    Codec ID/Info : UTF-8 Plain Text
    Title : SDH
    Language : English
    Default : No
    Forced : No
    Text #9
    ID : 9
    Format : UTF-8
    Codec ID : S_TEXT/UTF8
    Codec ID/Info : UTF-8 Plain Text
    Title : SDH Colored
    Language : English
    Default : No
    Forced : No
    Menu
    00:00:00.000 : en:Chapter 01
    00:05:35.418 : en:Chapter 02
    00:12:10.521 : en:Chapter 03
    00:23:27.364 : en:Chapter 04
    00:27:56.424 : en:Chapter 05
    00:32:11.220 : en:Chapter 06
    00:38:03.698 : en:Chapter 07
    00:44:20.282 : en:Chapter 08
    00:48:40.876 : en:Chapter 09
    00:56:19.667 : en:Chapter 10
    01:01:16.672 : en:Chapter 11
    01:07:35.092 : en:Chapter 12
    01:15:23.435 : en:Chapter 13
    01:19:58.835 : en:Chapter 14
    01:26:51.831 : en:Chapter 15
    01:31:27.106 : en:Chapter 16
    01:39:32.716 : en:Chapter 17
    01:45:32.701 : en:Chapter 18
    01:53:45.652 : en:Chapter 19
    02:02:56.160 : en:Chapter 20

    Размер скачиваемого торрента: 29.61 GB (31796120881 Bytes)

    Риддик / Riddick (2013) BDRemux 1080p | Unrated от GORESEWAGE торрент скачать бесплатно
    загрузка...
    Рейтинг →
     (голосов: 1, оценка 4/5, голосовать можно 1 раз )

    Другие торренты по теме:

  • Риддик / Riddick (2013) HD-720p | D | Трейлер
  • Риддик / Riddick (2013) CAMRip
  • Риддик / Riddick (2013) CAMRip *PROPER*
  • Риддик / Riddic (2013) CAMRip *PROPER* скачать через торрент бесплатно
  • Риддик / Riddick (2013) WEBRip | Звук с TS скачать через торрент бесплатно
  • Риддик / Riddick (2013) WEBRip | L1 скачать через торрент бесплатно
  • Риддик / Riddick (2013) DVDRip | Звук с TS
  • Риддик / Riddick (2013) DVDRip | Чистый звук скачать через торрент бесплатно


    • Комментарии (0):

      Информация

      Информация

        Посетители, находящиеся в группе Гости, не могут оставлять комментарии в данной новости.

        ↓ Меню



        ↓ Опрос

        А Вы добавили сайт в закладки?
        Да
        Не


        Top 10 за месяц (Фильмы)