.
Авторизация | Регистрация
Хочешь лучшие торренты? Добавь свой email!
Добавить
» » Не угаснет надежда / All Is Lost (2013) BDRip 1080p от GORESEWAGE скачать торрент бесплатно




    Не угаснет надежда / All Is Lost (2013) BDRip 1080p от GORESEWAGE скачать торрент бесплатно

    Опубликовал: Админ | Дата: 27-02-2015, 11:10 | Просмотров: 233



    Детально о кино

    Русское название: Не угаснет надежда
    Русское название в мировом прокате: All Is Lost
    Создали в: 2013
    Снималось в: США
    Категория жанра: приключения, драма
    Время просмотра: 01:45:44.838
    Перевод текста 1: Одноголосый закадровый den904
    Перевод текста 2: Одноголосый закадровый Doctor_Joker (Алексей Матвеев)
    Оригинальная аудиодорожка: Английская
    Субтитры: Русские (Full by Voronine), английские (Full, SDH)
    Киностудия: Before The Door Pictures, Washington Square Films, Black Bear Pictures

    Главный режиссёр: Джей Си Чендор / J.C. Chandor

    Актеры: Роберт Редфорд

    Сюжет: Высокий загорелый мужчина путешествует на роскошной яхте в теплых водах Индийского океана, но идиллическая картина меняется в одночасье, и герой оказывается один на один с бездной. Ради тех, кто остался на берегу, он вступит в схватку со свирепой стихией.





    Качество фильма: BDRip 1080p (CHD)
    Контейнер: MKV
    Информация о видео кодек: MPEG-4 AVC Video
    Информация о звуке кодек: DTS Audio / Dolby Digital Audio
    Информация о видео: MPEG-4 AVC Video / 10281 kbps / 1920x800p / 23,976 fps / 2.40:1 / High Profile 4.1
    Информация о звуке 1: Russian / DTS Audio / 5.1 / 48 kHz / 1536 kbps / 24-bit / VO den904
    Информация о звуке 2: Russian / DTS Audio / 5.1 / 48 kHz / 1536 kbps / 24-bit / VO Doctor_Joker (Алексей Матвеев)
    Информация о звуке 3: English / DTS Audio / 5.1 / 48 kHz / 1536 kbps / 24-bit / Original
    Информация о звуке 4: English / Dolby Digital Audio / 2.0 / 48 kHz / 192 kbps / 16-bit / Filmmaker commentary
    Навигация по главам: да

    Дополнительная информация

    * За исходную дорогу № 1 thx schumaher.
    * За исходную дорогу № 2 thx sashock86.

    Скриншот с названием фильма

    Скриншоты для ознакомления

    Полноразмерные постеры

    MediaInfo
    C:/GORESEWAGE/All Is Lost 2013 BDRip 1080p GORESEWAGE.mkv
    General
    Unique ID : 182754800104419886632011621379068608820 (0x897D4B50B3A42AFBA9C1F673AACF4134)
    Complete name : C:/GORESEWAGE/All Is Lost 2013 BDRip 1080p GORESEWAGE.mkv
    Format : Matroska
    Format version : Version 4 / Version 2
    File size : 11.1 GiB
    Duration : 1h 45mn
    Overall bit rate : 15.0 Mbps
    Movie name : All Is Lost 2013 BDRip 1080p GORESEWAGE
    Encoded date : UTC 2014-01-31 22:54:52
    Writing application : mkvmerge v6.7.0 (;Back to the Ground;) 64bit built on Jan 8 2014 15:10:52
    Writing library : libebml v1.3.0 libmatroska v1.4.1
    Attachment : Yes
    Video #1
    ID : 1
    Format : AVC
    Format/Info : Advanced Video Codec
    Format profile : High@L4.1
    Format settings, CABAC : Yes
    Format settings, ReFrames : 5 frames
    Codec ID : V_MPEG4/ISO/AVC
    Duration : 1h 45mn
    Bit rate : 10.3 Mbps
    Width : 1 920 pixels
    Height : 800 pixels
    Display aspect ratio : 2.40:1
    Frame rate mode : Constant
    Frame rate : 23.976 fps
    Color space : YUV
    Chroma subsampling : 4:2:0
    Bit depth : 8 bits
    Scan type : Progressive
    Bits/(Pixel*Frame) : 0.279
    Stream size : 7.37 GiB (67%)
    Title : All Is Lost 2013 BDRip 1080p GORESEWAGE
    Writing library : x264 core 138 r2356 a1d3d17
    Encoding settings : cabac=1 / ref=5 / deblock=1:-3:-3 / analyse=0x3:0x113 / me=umh / subme=10 / psy=1 / psy_rd=1.00:0.05 / mixed_ref=1 / me_range=32 / chroma_me=1 / trellis=2 / 8x8dct=1 / cqm=0 / deadzone=21,11 / fast_pskip=0 / chroma_qp_offset=-2 / threads=18 / lookahead_threads=1 / sliced_threads=0 / nr=0 / decimate=1 / interlaced=0 / bluray_compat=0 / constrained_intra=0 / bframes=6 / b_pyramid=2 / b_adapt=2 / b_bias=0 / direct=3 / weightb=1 / open_gop=0 / weightp=2 / keyint=250 / keyint_min=23 / scenecut=40 / intra_refresh=0 / rc=2pass / mbtree=0 / bitrate=10281 / ratetol=1.0 / qcomp=0.70 / qpmin=0 / qpmax=69 / qpstep=4 / cplxblur=20.0 / qblur=0.5 / ip_ratio=1.40 / pb_ratio=1.30 / aq=2:0.90
    Language : English
    Default : Yes
    Forced : No
    Audio #2
    ID : 2
    Format : DTS
    Format/Info : Digital Theater Systems
    Mode : 16
    Format settings, Endianness : Big
    Codec ID : A_DTS
    Duration : 1h 45mn
    Bit rate mode : Constant
    Bit rate : 1 509 Kbps
    Channel count : 6 channels
    Channel positions : Front: L C R, Side: L R, LFE
    Sampling rate : 48.0 KHz
    Bit depth : 24 bits
    Compression mode : Lossy
    Stream size : 1.11 GiB (10%)
    Title : VO den904
    Language : Russian
    Default : Yes
    Forced : No
    Audio #3
    ID : 3
    Format : DTS
    Format/Info : Digital Theater Systems
    Mode : 16
    Format settings, Endianness : Big
    Codec ID : A_DTS
    Duration : 1h 45mn
    Bit rate mode : Constant
    Bit rate : 1 509 Kbps
    Channel count : 6 channels
    Channel positions : Front: L C R, Side: L R, LFE
    Sampling rate : 48.0 KHz
    Bit depth : 24 bits
    Compression mode : Lossy
    Stream size : 1.11 GiB (10%)
    Title : VO Doctor_Joker (Алексей Матвеев)
    Language : Russian
    Default : No
    Forced : No
    Audio #4
    ID : 4
    Format : DTS
    Format/Info : Digital Theater Systems
    Mode : 16
    Format settings, Endianness : Big
    Codec ID : A_DTS
    Duration : 1h 45mn
    Bit rate mode : Constant
    Bit rate : 1 509 Kbps
    Channel count : 6 channels
    Channel positions : Front: L C R, Side: L R, LFE
    Sampling rate : 48.0 KHz
    Bit depth : 24 bits
    Compression mode : Lossy
    Stream size : 1.11 GiB (10%)
    Title : Original
    Language : English
    Default : No
    Forced : No
    Audio #5
    ID : 5
    Format : AC-3
    Format/Info : Audio Coding 3
    Format profile : Dolby Digital
    Mode extension : C (commentary)
    Format settings, Endianness : Big
    Codec ID : A_AC3
    Duration : 1h 45mn
    Bit rate mode : Constant
    Bit rate : 192 Kbps
    Channel count : 2 channels
    Channel positions : Front: L R
    Sampling rate : 48.0 KHz
    Bit depth : 16 bits
    Compression mode : Lossy
    Stream size : 145 MiB (1%)
    Title : Filmmaker commentary
    Language : English
    Default : No
    Forced : No
    Text #6
    ID : 6
    Format : UTF-8
    Codec ID : S_TEXT/UTF8
    Codec ID/Info : UTF-8 Plain Text
    Title : Full by Voronine
    Language : Russian
    Default : No
    Forced : No
    Text #7
    ID : 7
    Format : UTF-8
    Codec ID : S_TEXT/UTF8
    Codec ID/Info : UTF-8 Plain Text
    Title : Full
    Language : English
    Default : No
    Forced : No
    Text #8
    ID : 8
    Format : UTF-8
    Codec ID : S_TEXT/UTF8
    Codec ID/Info : UTF-8 Plain Text
    Title : SDH
    Language : English
    Default : No
    Forced : No
    Menu
    00:00:00.000 : en:00:00:00.000
    00:06:14.916 : en:00:06:14.916
    00:12:36.673 : en:00:12:36.673
    00:18:26.647 : en:00:18:26.647
    00:25:21.061 : en:00:25:21.061
    00:30:09.266 : en:00:30:09.266
    00:36:16.633 : en:00:36:16.633
    00:42:42.226 : en:00:42:42.226
    00:48:24.193 : en:00:48:24.193
    00:53:59.486 : en:00:53:59.486
    01:00:03.099 : en:01:00:03.099
    01:07:18.534 : en:01:07:18.534
    01:12:05.571 : en:01:12:05.571
    01:18:12.563 : en:01:18:12.563
    01:24:27.854 : en:01:24:27.854
    01:38:45.002 : en:01:38:45.002

    Размер скачиваемого торрента: 11.07 GB (11889518369 Bytes)

    Не угаснет надежда / All Is Lost (2013) BDRip 1080p от GORESEWAGE торрент скачать бесплатно
    загрузка...
    Рейтинг →
     (голосов: 1, оценка 4/5, голосовать можно 1 раз )

    Другие торренты по теме:

  • Не угаснет надежда / All Is Lost (2013) HDTV 1080p | L1
  • Не угаснет надежда / All Is Lost (2013) HDTVRip | L1
  • Не угаснет надежда / All Is Lost (2013) HDTVRip от Torrange | L1 скачать через торрент бесплатно
  • Не угаснет надежда / All Is Lost (2013) HDTVRip от New-Team | L1 | den904 скачать через торрент бесплатно
  • Не угаснет надежда / All Is Lost (2013) HDTVRip от Scarabey
  • Не угаснет надежда / All Is Lost (2013) WEB-DLRip от New-Team | L1
  • Не угаснет надежда / All Is Lost (2013) WEB-DLRip от New-Team | L1 | den904
  • Не угаснет надежда / All Is Lost (2013) BDRip-AVC от MediaClub | L1


    • Комментарии (0):

      Информация

      Информация

        Посетители, находящиеся в группе Гости, не могут оставлять комментарии в данной новости.

        ↓ Меню



        ↓ Опрос

        А Вы добавили сайт в закладки?
        Да
        Не


        Top 10 за месяц (Фильмы)