.
Авторизация | Регистрация
Хочешь лучшие торренты? Добавь свой email!
Добавить
» » Семейные узы / Family Ties (1982) DVDRip | Quantum Studio скачать через торрент бесплатно




    Семейные узы / Family Ties (1982) DVDRip | Quantum Studio скачать через торрент бесплатно

    Опубликовал: Админ | Дата: 27-02-2015, 11:10 | Просмотров: 753



    Русское название: Семейные узы
    Русское название в мировом прокате: Family Ties
    Создали в: 1982
    Снималось в: США
    Категория жанра: комедия, семейный
    Время просмотра: 00:23:00

    Перевод текста: Любительский (многоголосый закадровый) Quantum Studio
    Субтитры: нет
    Главный режиссёр: Гари Дэвид Голдберг

    Актеры:
    Мередит Бакстер, Майкл Гросс, Майкл Дж. Фокс, Джастин Бэйтмен, Тина Йозерс и др.

    Текст читали:
    Дмитрий Zahar Сухоруков - Стивен Китон,
    Анастасия Stacy Домнина - Элиза Китон (в 1х01)
    Екатерина Siviel Дмитрова - Мэллори Китон, Дженнифер Китон, Элиза Китон (в 1х02)
    Вячеслав Berserk Громов - Алекс Китон (в 1x01)
    Артем Кущак - Алекс Китон (в 1x02)

    Перевод текста с англ. (1-2 серия): Михаил Осинцев

    Сюжет:
    Семейные узы - американский ситком, состоящий из 7-ми сезон любимого сериалаов и выходивший на канале NBC. Сериал рассказывает о жизни обычной американской семьи и на ее примере, с известной долей юмора, отражает постепенный отказ от культурного либерализма, который имел место в 60-ых и 70-ых годах, и переход к более консервативному обществу 80-ых. Молодое поколение отвергает идеалы своих родителей, создавая шкалу своих собственных ценностей. Рональд Рейган, во время правления которого и демонстрировался сериал, однажды заявил, что он является его любимым.

    Качество фильма: DVDRip
    Тип видео: AVI
    Информация о видео кодек: XviD
    Информация о звуке кодек: MP3
    Информация о видео (1-2 серии): XviD, 448x336, 29.970 fps, ~1285 kbps, 0.285 bit/pixel
    Информация о звуке (1 серия): MP3, 44.1 kHz, 2 ch, 256 kbps
    Информация о звуке (2 серия): РCM, 48.0 kHz, 1 ch, 768 kbps

    Сэмпл: http://multi-up.com/938938



    MediaInfo (1 серия)


    Общее
    Полное имя : E:СериалыFamily Ties - Season 11x01 - Pilot.avi
    Формат : AVI
    Формат/Информация : Audio Video Interleave
    Размер файла : 262 Мбайт
    Продолжительность : 23 м.
    Общий поток : 1553 Кбит/сек
    Программа кодирования : Nandub v1.0rc2
    Библиотека кодирования : VirtualDub build 35390/release

    Видео
    Идентификатор : 0
    Формат : MPEG-4 Visual
    Профиль формата : Advanced Simple@L5
    Параметр BVOP формата : 2
    Параметр QPel формата : Нет
    Параметр GMC формата : Без точки перехода
    Параметр матрицы формата : Default (MPEG)
    Идентификатор кодека : XVID
    Идентификатор кодека/Подсказка : XviD
    Продолжительность : 23 м.
    Битрейт : 1285 Кбит/сек
    Ширина : 448 пикселей
    Высота : 336 пикселей
    Соотношение сторон : 4:3
    Частота кадров : 29,970 кадров/сек
    Цветовое пространство : YUV
    Субдискретизация насыщенности : 4:2:0
    Битовая глубина : 8 бит
    Тип развёртки : Прогрессивная
    Метод сжатия : С потерями
    Бит/(Пиксели*Кадры) : 0.285
    Размер потока : 216 Мбайт (83%)
    Библиотека кодирования : XviD 1.1.0 Beta2 (UTC 2005-04-04)

    Аудио
    Идентификатор : 1
    Формат : MPEG Audio
    Версия формата : Version 1
    Профиль формата : Layer 3
    Идентификатор кодека : 55
    Идентификатор кодека/Подсказка : MP3
    Продолжительность : 23 м.
    Вид битрейта : Постоянный
    Битрейт : 256 Кбит/сек
    Каналы : 2 канала
    Частота : 44,1 КГц
    Метод сжатия : С потерями
    Размер потока : 43,1 Мбайт (16%)
    Выравнивание : Разделение по промежуткам
    Продолжительность промежутка : 33 мс. (1,00 видеокадр)
    Время предзагрузки промежутка : 500 мс.


    MediaInfo (2 серия)


    Общее
    Полное имя : E:СериалыFamily Ties - Season 11x02 - Not With My Sister You Don;t.avi
    Формат : AVI
    Формат/Информация : Audio Video Interleave
    Размер файла : 351 Мбайт
    Продолжительность : 24 м.
    Общий поток : 2027 Кбит/сек
    Программа кодирования : Nandub v1.0rc2
    Библиотека кодирования : VirtualDub build 35390/release

    Видео
    Идентификатор : 0
    Формат : MPEG-4 Visual
    Профиль формата : Advanced Simple@L5
    Параметр BVOP формата : 2
    Параметр QPel формата : Нет
    Параметр GMC формата : Без точки перехода
    Параметр матрицы формата : Default (MPEG)
    Идентификатор кодека : XVID
    Идентификатор кодека/Подсказка : XviD
    Продолжительность : 24 м.
    Битрейт : 1247 Кбит/сек
    Ширина : 448 пикселей
    Высота : 336 пикселей
    Соотношение сторон : 4:3
    Частота кадров : 29,970 кадров/сек
    Цветовое пространство : YUV
    Субдискретизация насыщенности : 4:2:0
    Битовая глубина : 8 бит
    Тип развёртки : Прогрессивная
    Метод сжатия : С потерями
    Бит/(Пиксели*Кадры) : 0.276
    Размер потока : 216 Мбайт (62%)
    Библиотека кодирования : XviD 1.1.0 Beta2 (UTC 2005-04-04)

    Аудио
    Идентификатор : 1
    Формат : PCM
    Параметр Endianness формата : Little
    Параметр Sign формата : Signed
    Идентификатор кодека : 1
    Продолжительность : 24 м.
    Вид битрейта : Постоянный
    Битрейт : 768 Кбит/сек
    Каналы : 1 канал
    Частота : 48,0 КГц
    Битовая глубина : 16 бит
    Размер потока : 133 Мбайт (38%)
    Выравнивание : Соединение по промежуткам
    Продолжительность промежутка : 33 мс. (1,00 видеокадр)
    Время предзагрузки промежутка : 500 мс.


    Скриншоты для ознакомления






    Внимание! Раздача ведётся путём добавления новых серий

    Внимание! Раздача ведётся путём добавления новых серий; при каждом добавлении создаётся новый торрент-файл. Чтобы начать докачку новой серии, пользователям необходимо сделать следующее:
    (1) остановить скачивание;
    (2) удалить старый торрент-файл у себя из клиента (старые серии удалять не надо);
    (3) скачать новый торрент-файл и запустить его у себя в клиенте вместо старого, при этом указать клиенту путь в старую папку куда и должно происходить скачивание новых серий.
    Ваш клиент при этом должен произвести хеширование (проверку) старой папки (если он не производит проверку сам – помогите ему сделать это), и будет докачивать только те серии которых у вас ещё нет. Старые серии при этом не удаляются, а продолжают раздаваться!
    Если вы уже удалили старые серии, то предотвратить повторную закачку старых серий можно, отжав галочку в соответствующих местах при запуске нового торрент-файла. Желательно старые серии не удалять как можно дольше, чтобы релизёр не столько продолжал раздавать старые серии, а смог сконцентрироваться на новых.

    Залил: geka9999
    Размер скачиваемого торрента: 612.33 MB (642072320 Bytes)

    Семейные узы / Family Ties (1982) DVDRip | Quantum Studio скачать через торрент бесплатно
    загрузка...
    Рейтинг →
     (голосов: 1, оценка 5/5, голосовать можно 1 раз )

    Другие торренты по теме:

  • Семейные истории: Близнецы / Family Tales: The Sisters (2013) PC
  • Семейные ценности / Американская Семейка / Modern Family (2010) WEB-DLRip | D | Paramount Comedy
  • Семейные ценности / Американская Семейка / Modern Family (2009) WEB-DLRip | D | Paramount Comedy
  • Семейные обстоятельства (2013) SATRip от Files-x скачать через торрент бесплатно
  • Тайные агенты / Семейные тайны / Undercovers (2010) HDTVRip | ТНТ
  • Американская семейка / Семейные Ценности / Modern Family (2009-2012) WEB-DLRip | Paramount Comedy скачать через торрент бесплатно
  • Американская семейка (Семейные Ценности) / Modern Family (2013) WEB-DL 720p | LostFilm скачать через торрент бесплатно
  • 300 аудио-ответов на семейные вопросы скачать через торрент бесплатно


    • Комментарии (0):

      Информация

      Информация

        Посетители, находящиеся в группе Гости, не могут оставлять комментарии в данной новости.

        ↓ Меню



        ↓ Опрос

        А Вы добавили сайт в закладки?
        Да
        Не


        Top 10 за месяц (Фильмы)