.
Авторизация | Регистрация
Хочешь лучшие торренты? Добавь свой email!
Добавить
» » Советник / The Counselor (2013) BDRemux 1080p | Лицензия скачать через торрент бесплатно




    Советник / The Counselor (2013) BDRemux 1080p | Лицензия скачать через торрент бесплатно

    Опубликовал: Админ | Дата: 27-02-2015, 11:10 | Просмотров: 344



    Детально о кино
    Русское название: Советник
    Русское название в мировом прокате: The Counselor
    Создали в: 2013
    Категория жанра: Триллер, драма, криминал
    Снималось в: США, Великобритания, Chockstone Pictures, Kanzaman S.A., Nick Wechsler Productions, Scott Free Productions, Translux
    Главный режиссер: Ридли Скотт
    Актеры: Майкл Фассбендер, Пенелопа Крус, Кэмерон Диаз, Хавьер Бардем, Брэд Питт, Бруно Ганц, Рози Перес, Тоби Кеббелл, Эмма Ригби, Эдгар Рамирес

    Сюжет фильма: Успешный адвокат, стоящий практически на вершине успеха и на пороге собственной свадьбы, из любопытства и, конечно, ради денег соглашается на предложение своего давнего знакомого, имеющего тесные связи с преступным миром, перевезти из Мексики в США партию кокаина стоимостью 20 млн. долл.



    Файл
    Качество фильма: Blu-Ray Remux (1080p)
    Информация о видео: MPEG-4 AVC, 29793 Кбит/с, 1920x1080
    Информация о звуке: Русский (DTS, 6 ch, 768 Кбит/с), украинский (AC3, 6 ch, 448 Кбит/с), английский (DTS-HD MA, 6 ch, 3780 Кбит/с)
    Размер скачиваемого торрента: 28.17 ГБ
    Время просмотра: 01:57:14
    Перевод текста: Дублированный лицензия
    Субтитры: Русские, английские, украинские
    MI
    Общее
    Уникальный идентификатор : 210102443882976832730452975370318791605 (0x9E1042412178E61EA6B89B57C30243B5)
    Полное имя : E:menedgerThe.Counselor.Theatrical.Cut.2013.D.BD-Remux.mkv
    Формат : Matroska
    Версия формата : Version 2
    Размер файла : 28,2 Гбайт
    Продолжительность : 1 ч. 57 м.
    Режим общего битрейта : Переменный
    Общий поток : 34,4 Мбит/сек
    Дата кодирования : UTC 2014-01-30 10:53:12
    Программа кодирования : mkvmerge v5.8.0 (;No Sleep / Pillow;) built on Sep 2 2012 15:37:04
    Библиотека кодирования : libebml v1.2.3 libmatroska v1.3.0

    Видео
    Идентификатор : 1
    Формат : AVC
    Формат/Информация : Advanced Video Codec
    Профиль формата : High@L4.1
    Параметр CABAC формата : Да
    Параметр ReFrames формата : 4 кадра
    Идентификатор кодека : V_MPEG4/ISO/AVC
    Продолжительность : 1 ч. 57 м.
    Вид битрейта : Переменный
    Максимальный битрейт : 32,0 Мбит/сек
    Ширина : 1920 пикселей
    Высота : 1080 пикселей
    Соотношение сторон : 16:9
    Режим частоты кадров : Постоянный
    Частота кадров : 23,976 кадра/сек
    Цветовое пространство : YUV
    Субдискретизация насыщенности : 4:2:0
    Битовая глубина : 8 бит
    Тип развёртки : Прогрессивная
    Язык : English
    Default : Да
    Forced : Нет

    Аудио #1
    Идентификатор : 2
    Формат : DTS
    Формат/Информация : Digital Theater Systems
    Режим : 16
    Параметр Endianness формата : Big
    Идентификатор кодека : A_DTS
    Продолжительность : 1 ч. 57 м.
    Вид битрейта : Постоянный
    Битрейт : 768 Кбит/сек
    Каналы : 6 каналов
    Расположение каналов : Front: L C R, Side: L R, LFE
    Частота : 48,0 КГц
    Битовая глубина : 24 бит
    Метод сжатия : С потерями
    Размер потока : 644 Мбайт (2%)
    Заголовок : DTS 5.1 @ 768 kbps - Dubbed BD EUR
    Язык : Russian
    Default : Да
    Forced : Нет

    Аудио #2
    Идентификатор : 3
    Формат : AC-3
    Формат/Информация : Audio Coding 3
    Расширение режима : CM (complete main)
    Параметр Endianness формата : Big
    Идентификатор кодека : A_AC3
    Продолжительность : 1 ч. 57 м.
    Вид битрейта : Постоянный
    Битрейт : 448 Кбит/сек
    Каналы : 6 каналов
    Расположение каналов : Front: L C R, Side: L R, LFE
    Частота : 48,0 КГц
    Битовая глубина : 16 бит
    Метод сжатия : С потерями
    Размер потока : 376 Мбайт (1%)
    Заголовок : AC3 5.1 @ 448 kbps - Dubbed BD EUR
    Язык : Ukrainian
    Default : Нет
    Forced : Нет

    Аудио #3
    Идентификатор : 4
    Формат : DTS
    Формат/Информация : Digital Theater Systems
    Профиль формата : MA / Core
    Режим : 16
    Параметр Endianness формата : Big
    Идентификатор кодека : A_DTS
    Продолжительность : 1 ч. 57 м.
    Вид битрейта : Переменный
    Битрейт : Неизвестно / 1509 Кбит/сек
    Каналы : 6 каналов
    Расположение каналов : Front: L C R, Side: L R, LFE
    Частота : 48,0 КГц
    Битовая глубина : 24 бит
    Метод сжатия : Без потерь / Lossy
    Заголовок : DTS HD
    Язык : English
    Default : Нет
    Forced : Нет

    Текст #1
    Идентификатор : 5
    Формат : UTF-8
    Идентификатор кодека : S_TEXT/UTF8
    Идентификатор кодека/Информация : UTF-8 Plain Text
    Заголовок : full
    Язык : Russian
    Default : Нет
    Forced : Нет

    Текст #2
    Идентификатор : 6
    Формат : UTF-8
    Идентификатор кодека : S_TEXT/UTF8
    Идентификатор кодека/Информация : UTF-8 Plain Text
    Заголовок : full
    Язык : Ukrainian
    Default : Нет
    Forced : Нет

    Текст #3
    Идентификатор : 7
    Формат : UTF-8
    Идентификатор кодека : S_TEXT/UTF8
    Идентификатор кодека/Информация : UTF-8 Plain Text
    Заголовок : full
    Язык : English
    Default : Нет
    Forced : Нет

    Меню
    00:00:00.000 : en:Chapter 1
    00:04:44.701 : en:Chapter 2
    00:07:54.056 : en:Chapter 3
    00:09:49.588 : en:Chapter 4
    00:13:45.532 : en:Chapter 5
    00:20:49.831 : en:Chapter 6
    00:23:53.098 : en:Chapter 7
    00:26:31.715 : en:Chapter 8
    00:34:09.881 : en:Chapter 9
    00:39:30.659 : en:Chapter 10
    00:45:38.402 : en:Chapter 11
    00:48:20.772 : en:Chapter 12
    00:54:04.157 : en:Chapter 13
    00:58:46.272 : en:Chapter 14
    01:00:29.083 : en:Chapter 15
    01:08:26.352 : en:Chapter 16
    01:12:55.162 : en:Chapter 17
    01:17:10.834 : en:Chapter 18
    01:20:23.735 : en:Chapter 19
    01:23:28.795 : en:Chapter 20
    01:25:56.067 : en:Chapter 21
    01:30:28.589 : en:Chapter 22
    01:33:16.132 : en:Chapter 23
    01:38:24.273 : en:Chapter 24
    01:43:28.577 : en:Chapter 25
    01:47:40.662 : en:Chapter 26
    01:49:45.829 : en:Chapter 27
    01:53:11.618 : en:Chapter 28

    Скриншоты для ознакомления



    Размер скачиваемого торрента: 28.17 GB (30247979872 Bytes)

    Советник / The Counselor (2013) BDRemux 1080p | Лицензия скачать через торрент бесплатно
    загрузка...
    Рейтинг →
     (голосов: 1, оценка 4/5, голосовать можно 1 раз )

    Другие торренты по теме:

  • Советник / The Counselor (2013) HD 1080p | Тизер
  • Кормак МакКарти / Cormac McCarthy - Советник / The Counselor (2013) DOC
  • OST. Энри Лолашвили - Статский советник (2009) MP3
  • OST. Энри Лолашвили - Статский советник (2009) APE
  • Советник (2013) скачать через торрент бесплатно
  • Советник / The Counselor (2013) CAMRip от INTERCINEMA
  • Советник / The Counselor (2013) WEB-DL 720p | Звук с CAMRip скачать через торрент бесплатно
  • Советник / The Counselor (2013) WEB-DLRip | Звук с CAMRip скачать через торрент бесплатно


    • Комментарии (0):

      Информация

      Информация

        Посетители, находящиеся в группе Гости, не могут оставлять комментарии в данной новости.

        ↓ Меню



        ↓ Опрос

        А Вы добавили сайт в закладки?
        Да
        Не


        Top 10 за месяц (Фильмы)