.
Авторизация | Регистрация
Хочешь лучшие торренты? Добавь свой email!
Добавить
» » Масло в огонь / De lhuile sur le feu (2011) DVB от MediaClub | P скачать через торрент бесплатно




    Масло в огонь / De lhuile sur le feu (2011) DVB от MediaClub | P скачать через торрент бесплатно

    Опубликовал: Админ | Дата: 27-02-2015, 11:10 | Просмотров: 325



    Детально о кино
    Русское название: Масло в огонь
    Русское название в мировом прокате: De l;huile sur le feu
    Создали в: 2011
    Категория жанра: Kомедия
    Главный режиссер: Николас Бенаму
    Актеры: Надер Буссандель, Венсан Лакост, Тиен Шу, Azzedine Benamara, Алис Белаиди, Фатсах Буяхмед, Бан Хэй Мин, Юбай Чжан, Эмир Сегир, Paul Sheng

    Сюжет фильма:
    Это однажды случилось в Бельвиле, два ресторана встали друг против друга: Бербер Кинг семьи Шуффри и Империя дракона семьи Зи. Все шло хорошо, до тех пор пока Самир Шуффри не обвинил месье Зи в том, что он съел его собаку.



    Снималось в: Франция
    Киностудия: Agence Nationale pour la Coh?sion Sociale et l;Egalit? des Chances (ACSE)
    Время просмотра: 01:26:43
    Перевод текста: Профессиональный многоголосый (НТВ )

    Файл
    Качество фильма: DVB
    Информация о видео: MPEG-2, 2275 Кбит/с, 720x576@1024x576
    Информация о звуке: Русский (АС3, 2 ch, 192 Кбит/с) / (MP2, 2 ch, 192 Кбит/с)

    Семпл

    Скриншоты для ознакомления


    MI
    Общее
    Полное имя : Maslo.v.ogon.2011.DVB.MediaClub.ts
    Формат : MPEG-TS
    Профиль формата : No PAT/PMT
    Размер файла : 1,69 Гбайт
    Продолжительность : 1 ч. 26 м.
    Режим общего битрейта : Переменный
    Общий поток : 2801 Кбит/сек

    Видео
    Идентификатор : 322 (0x142)
    Формат : MPEG Video
    Версия формата : Version 2
    Профиль формата : Main@Main
    Параметр BVOP формата : Да
    Параметр матрицы формата : Выборочная
    Параметр GOP формата : Variable
    Продолжительность : 1 ч. 26 м.
    Вид битрейта : Переменный
    Битрейт : 2275 Кбит/сек
    Максимальный битрейт : 15,0 Мбит/сек
    Ширина : 720 пикселей
    Высота : 576 пикселей
    Соотношение сторон : 16:9
    Частота кадров : 25,000 кадров/сек
    Стандарт вещания : PAL
    Цветовое пространство : YUV
    Субдискретизация насыщенности : 4:2:0
    Битовая глубина : 8 бит
    Тип развёртки : Чересстрочная
    Порядок развёртки : Верхнее поле первое
    Метод сжатия : С потерями
    Бит/(Пиксели*Кадры) : 0.219
    Размер потока : 1,38 Гбайт (81%)

    Аудио #1
    Идентификатор : 405 (0x195)
    Формат : MPEG Audio
    Версия формата : Version 1
    Профиль формата : Layer 2
    Продолжительность : 1 ч. 26 м.
    Вид битрейта : Постоянный
    Битрейт : 192 Кбит/сек
    Каналы : 2 канала
    Частота : 48,0 КГц
    Метод сжатия : С потерями
    Задержка видео : -548 мс.
    Размер потока : 119 Мбайт (7%)

    Аудио #2
    Идентификатор : 435 (0x1B3)
    Формат : AC-3
    Формат/Информация : Audio Coding 3
    Расширение режима : CM (complete main)
    Параметр Endianness формата : Big
    Продолжительность : 1 ч. 26 м.
    Вид битрейта : Постоянный
    Битрейт : 192 Кбит/сек
    Каналы : 2 канала
    Расположение каналов : Front: L R
    Частота : 48,0 КГц
    Битовая глубина : 16 бит
    Метод сжатия : С потерями
    Задержка видео : -599 мс.
    Размер потока : 119 Мбайт (7%)


    Релиз подготовил:
    Залил: poja
    Размер скачиваемого торрента: 1.69 GB (1818344084 Bytes)

    Масло в огонь / De lhuile sur le feu (2011) DVB от MediaClub | P скачать через торрент бесплатно
    загрузка...
    Рейтинг →
     (голосов: 1, оценка 5/5, голосовать можно 1 раз )

    Другие торренты по теме:

  • Масло в огонь / De lhuile sur le feu (2011) SATRip от MediaClub | P
  • Масло в огонь / De lhuile sur le feu / Wok the Kasbah (2011) BDRip 720p от CINEMANIA | НТВ
  • Масло в огонь / De lhuile sur le feu / Wok the Kasbah (2011) BDRip 1080p от CINEMANIA | НТВ
  • Масло в огонь / De lhuile sur le feu (2011) BDRip-AVC | P скачать через торрент бесплатно


    • Комментарии (0):

      Информация

      Информация

        Посетители, находящиеся в группе Гости, не могут оставлять комментарии в данной новости.

        ↓ Меню



        ↓ Опрос

        А Вы добавили сайт в закладки?
        Да
        Не


        Top 10 за месяц (Фильмы)