.
Авторизация | Регистрация
Хочешь лучшие торренты? Добавь свой email!
Добавить
» » Советник / The Counselor (2013) BDRip 720p | Лицензия скачать через торрент бесплатно




    Советник / The Counselor (2013) BDRip 720p | Лицензия скачать через торрент бесплатно

    Опубликовал: Админ | Дата: 27-02-2015, 11:10 | Просмотров: 334



    Детально о кино
    Русское название: Советник
    Русское название в мировом прокате: The Counselor
    Создали в: 2013
    Категория жанра: триллер, драма, криминал
    Главный режиссер: Ридли Скотт
    Актеры: Майкл Фассбендер, Пенелопа Крус, Кэмерон Диаз, Хавьер Бардем, Брэд Питт, Бруно Ганц, Рози Перес, Тоби Кеббелл, Эмма Ригби, Эдгар Рамирез

    Сюжет фильма: Успешный адвокат, стоящий практически на вершине успеха и на пороге собственной свадьбы, из любопытства и, конечно, ради денег соглашается на предложение своего давнего знакомого, имеющего тесные связи с преступным миром, перевезти из Мексики в США партию кокаина стоимостью 20 млн. долл.



    Снималось в: США, Великобритания
    Время просмотра: 01:57:22
    Тип перевода: Дублированное лицензия

    Файл
    Тип видео: MKV
    Качество фильма: BDRip 720p
    Информация о видео: 1280x534 at 23.976 fps, x264@L4.1, 2pass, ~4588 kbps avg
    Информация о звуке#1: Russian: 48 kHz, DTS, 3/2 (L,C,R,l,r) LFE ch, ~768.00 kbps avg |Дубляж, Blu-Ray EUR|
    Информация о звуке#2: Ukrainian: 48 kHz, AC3, 3/2 (L,C,R,l,r) LFE ch, ~448.00 kbps avg |Дубляж, Blu-Ray EUR|
    Информация о звуке#3: English: 48 kHz, DTS, 3/2 (L,C,R,l,r) LFE ch, ~1536.00 kbps avg
    Субтитры: Russian, Ukrainian, English





    MI

    Format : Matroska
    Format version : Version 2
    File size : 5.99 GiB
    Duration : 1h 57mn
    Overall bit rate : 7 314 Kbps
    Movie name : HDClub present The Counselor (2013)
    Encoded date : UTC 2014-01-30 09:59:57
    Writing application : mkvmerge v5.8.0 (;No Sleep / Pillow;) built on Sep 2 2012 15:37:04
    Writing library : libebml v1.2.3 libmatroska v1.3.0

    Video
    ID : 1
    Format : AVC
    Format/Info : Advanced Video Codec
    Format profile : High@L4.1
    Format settings, CABAC : Yes
    Format settings, ReFrames : 12 frames
    Codec ID : V_MPEG4/ISO/AVC
    Duration : 1h 57mn
    Bit rate : 4 588 Kbps
    Width : 1 280 pixels
    Height : 534 pixels
    Display aspect ratio : 2.40:1
    Frame rate : 23.976 fps
    Color space : YUV
    Chroma subsampling : 4:2:0
    Bit depth : 8 bits
    Scan type : Progressive
    Bits/(Pixel*Frame) : 0.280
    Stream size : 3.65 GiB (61%)
    Title : The.Counselor.Theatrical.Cut.2013.720p.BluRay.Rus.Ukr.Eng.HDClub
    Writing library : x264 core 140 r2377 40 929f149 tMod 8-bit@all X86_64
    Encoding settings : cabac=1 / ref=12 / deblock=1:-3:-3 / analyse=0x3:0x133 / me=umh / subme=11 / psy=1 / fade_compensate=0.00 / psy_rd=1.00:0.00 / mixed_ref=1 / me_range=64 / chroma_me=1 / trellis=2 / 8x8dct=1 / cqm=0 / deadzone=21,11 / fast_pskip=0 / chroma_qp_offset=-2 / threads=12 / lookahead_threads=2 / sliced_threads=0 / nr=0 / decimate=0 / interlaced=0 / bluray_compat=0 / constrained_intra=0 / fgo=0 / bframes=7 / b_pyramid=2 / b_adapt=2 / b_bias=0 / direct=3 / weightb=1 / open_gop=0 / weightp=2 / keyint=240 / keyint_min=23 / scenecut=40 / intra_refresh=0 / rc_lookahead=60 / rc=2pass / mbtree=0 / bitrate=4588 / ratetol=1.0 / qcomp=0.70 / qpmin=0:0:0 / qpmax=69:69:69 / qpstep=4 / cplxblur=20.0 / qblur=0.5 / vbv_maxrate=50000 / vbv_bufsize=62500 / nal_hrd=none / filler=0 / ip_ratio=1.30 / pb_ratio=1.20 / aq=4:0.80 / aq-sensitivity=10.00 / aq-factor=1.00:1.00:1.00 / aq2=0 / aq3=0
    Language : English
    Default : Yes
    Forced : No

    Audio #1
    ID : 2
    Format : DTS
    Format/Info : Digital Theater Systems
    Codec ID : A_DTS
    Duration : 1h 57mn
    Bit rate mode : Constant
    Bit rate : 755 Kbps
    Channel(s) : 6 channels
    Channel positions : Front: L C R, Side: L R, LFE
    Sampling rate : 48.0 KHz
    Bit depth : 24 bits
    Compression mode : Lossy
    Stream size : 633 MiB (10%)
    Title : DTS 5.1 @ 768 kbps - Dubbed BD EUR
    Language : Russian
    Default : Yes
    Forced : No

    Audio #2
    ID : 3
    Format : AC-3
    Format/Info : Audio Coding 3
    Mode extension : CM (complete main)
    Format settings, Endianness : Big
    Codec ID : A_AC3
    Duration : 1h 57mn
    Bit rate mode : Constant
    Bit rate : 448 Kbps
    Channel(s) : 6 channels
    Channel positions : Front: L C R, Side: L R, LFE
    Sampling rate : 48.0 KHz
    Bit depth : 16 bits
    Compression mode : Lossy
    Stream size : 376 MiB (6%)
    Title : AC3 5.1 @ 448 kbps - Dubbed BD EUR
    Language : Ukrainian
    Default : No
    Forced : No

    Audio #3
    ID : 4
    Format : DTS
    Format/Info : Digital Theater Systems
    Codec ID : A_DTS
    Duration : 1h 57mn
    Bit rate mode : Constant
    Bit rate : 1 510 Kbps
    Channel(s) : 6 channels
    Channel positions : Front: L C R, Side: L R, LFE
    Sampling rate : 48.0 KHz
    Bit depth : 24 bits
    Compression mode : Lossy
    Stream size : 1.24 GiB (21%)
    Title : DTS 5.1 @ 1536 kbps - Original Core DTS HD
    Language : English
    Default : No
    Forced : No

    Text #1
    ID : 5
    Format : UTF-8
    Codec ID : S_TEXT/UTF8
    Codec ID/Info : UTF-8 Plain Text
    Title : full
    Language : Russian
    Default : No
    Forced : No

    Text #2
    ID : 6
    Format : UTF-8
    Codec ID : S_TEXT/UTF8
    Codec ID/Info : UTF-8 Plain Text
    Title : full
    Language : Ukrainian
    Default : No
    Forced : No

    Text #3
    ID : 7
    Format : UTF-8
    Codec ID : S_TEXT/UTF8
    Codec ID/Info : UTF-8 Plain Text
    Title : full
    Language : English
    Default : No
    Forced : No

    Menu
    00:00:00.000 : en:Chapter 1
    00:04:44.701 : en:Chapter 2
    00:07:54.056 : en:Chapter 3
    00:09:49.588 : en:Chapter 4
    00:13:45.532 : en:Chapter 5
    00:20:49.831 : en:Chapter 6
    00:23:53.098 : en:Chapter 7
    00:26:31.715 : en:Chapter 8
    00:34:09.881 : en:Chapter 9
    00:39:30.659 : en:Chapter 10
    00:45:38.402 : en:Chapter 11
    00:48:20.772 : en:Chapter 12
    00:54:04.157 : en:Chapter 13
    00:58:46.272 : en:Chapter 14
    01:00:29.083 : en:Chapter 15
    01:08:26.352 : en:Chapter 16
    01:12:55.162 : en:Chapter 17
    01:17:10.834 : en:Chapter 18
    01:20:23.735 : en:Chapter 19
    01:23:28.795 : en:Chapter 20
    01:25:56.067 : en:Chapter 21
    01:30:28.589 : en:Chapter 22
    01:33:16.132 : en:Chapter 23
    01:38:24.273 : en:Chapter 24
    01:43:28.577 : en:Chapter 25
    01:47:40.662 : en:Chapter 26
    01:49:45.829 : en:Chapter 27
    01:53:11.618 : en:Chapter 28
    Скриншоты для ознакомления


    Релиз:
    Размер скачиваемого торрента: 5.99 GB (6430484766 Bytes)

    Советник / The Counselor (2013) BDRip 720p | Лицензия скачать через торрент бесплатно
    загрузка...
    Рейтинг →
     (голосов: 1, оценка 5/5, голосовать можно 1 раз )

    Другие торренты по теме:

  • Советник / The Counselor (2013) HD 1080p | Тизер
  • Кормак МакКарти / Cormac McCarthy - Советник / The Counselor (2013) DOC
  • OST. Энри Лолашвили - Статский советник (2009) MP3
  • OST. Энри Лолашвили - Статский советник (2009) APE
  • Советник (2013) скачать через торрент бесплатно
  • Советник / The Counselor (2013) CAMRip от INTERCINEMA
  • Советник / The Counselor (2013) WEB-DL 720p | Звук с CAMRip скачать через торрент бесплатно
  • Советник / The Counselor (2013) WEB-DLRip | Звук с CAMRip скачать через торрент бесплатно


    • Комментарии (0):

      Информация

      Информация

        Посетители, находящиеся в группе Гости, не могут оставлять комментарии в данной новости.

        ↓ Меню



        ↓ Опрос

        А Вы добавили сайт в закладки?
        Да
        Не


        Top 10 за месяц (Фильмы)