.
Авторизация | Регистрация
Хочешь лучшие торренты? Добавь свой email!
Добавить
» » Мертвеход / The Revenant (2009) BDRemux 1080p скачать через торрент бесплатно




    Мертвеход / The Revenant (2009) BDRemux 1080p скачать через торрент бесплатно

    Опубликовал: Админ | Дата: 27-02-2015, 11:10 | Просмотров: 335



    Детально о кино

    Русское название: Мертвеход
    Русское название в мировом прокате: The Revenant
    Создали в: 2009
    Снималось в: США
    Категория жанра: ужасы, комедия, зомби-муви
    Время просмотра: 1:57:52.857
    Перевод текста 1: Любительский (многоголосый закадровый) ViruseProject Матюги!
    Перевод текста 2: Профессиональный (многоголосый закадровый) ТНТ
    Оригинальная аудиодорожка: Английская
    Субтитры: Русские (Full by Vesel1509), английские (Full, Commentary)
    Киностудия: Putrefactory

    Главный режиссёр: Д. Керри Прайор / D. Kerry Prior

    Актеры: Дэвид Андерс, Крис Уайлд, Луиз Гриффитс, Джеси Кинг, Эрик Пэйн, Бернардо Бадилло, Теда Рейчман, Ричард Рейчман, Уолли Уайт, Флойд Ван Баскирк др.

    Сюжет: Как вы поступите, если ваш лучший друг погибнет? Будете горевать, утешать его родственников, похороните его… И продолжите жить дальше, так как жизнь не стоит на месте… Но что вы будете делать, если ваш погибший друг вернётся? Причем вернётся он, как говорится, в здравом уме и твёрдой памяти...







    Качество фильма: BDRemux 1080p (The Revenant BluRay 2009 1080p AVC DTS-HD MA 5.1-CHDBits)
    Контейнер: MKV
    Информация о видео кодек: MPEG-4 AVC Video
    Информация о звуке кодек: DTS-HD Master Audio / Dolby Digital Audio
    Информация о видео: MPEG-4 AVC Video / 27989 kbps / 1920x1080p / 23,976 fps / 16:9 / High Profile 4.1
    Информация о звуке 1: Русский / DTS-HD Master Audio / 5.1 / 48 kHz / 3497 kbps / 24-bit (DTS Core: 5.1 / 48 kHz / 1509 kbps / 24-bit) / Любительский (многоголосый закадровый) ViruseProject
    Информация о звуке 2: Русский / Dolby Digital Audio / 2.0 / 48 kHz / 192 kbps / 16-bit / Профессиональный (многоголосый закадровый) ТНТ
    Информация о звуке 3: English / DTS-HD Master Audio / 5.1 / 48 kHz / 3461 kbps / 24-bit (DTS Core: 5.1 / 48 kHz / 1536 kbps / 24-bit) / Original
    Информация о звуке 4: English / Dolby Digital Audio / 2.0 / 48 kHz / 192 kbps / 16-bit / Director;s Commentary
    Информация о звуке 5: English / Dolby Digital Audio / 2.0 / 48 kHz / 192 kbps / 16-bit / Actors Audio Commentary
    Информация о звуке 6: English / Dolby Digital Audio / 2.0 / 48 kHz / 192 kbps / 16-bit / Visual Effects Commentary
    Навигация по главам: да

    Дополнительная информация
    MVO ViruseProject:

    Перевод на русский язык - Артём Vesel1509 Веселовский)

    Озвучка:

    * viruse (Виталий Емельянов) - Джоуи, Мисис Агматик и другие
    * europamusic (Сергей Калугин) - Барт и другие
    * _Lost_Girl_ (Полина Касаткина) - все женские

    Скриншот с названием фильма

    Скриншоты для ознакомления

    Полноразмерный постер

    MediaInfo
    C:/GORESEWAGE/The Revenant 2009 BDRemux 1080p GORESEWAGE Cinemania.cc.mkv
    General
    Unique ID : 172541287618021274972108003470979380432 (0x81CE3E4569E2F7B2BE60C383862C34D0)
    Complete name : C:/GORESEWAGE/The Revenant 2009 BDRemux 1080p GORESEWAGE Cinemania.cc.mkv
    Format : Matroska
    Format version : Version 4 / Version 2
    File size : 29.3 GiB
    Duration : 1h 57mn
    Overall bit rate mode : Variable
    Overall bit rate : 35.6 Mbps
    Movie name : The Revenant 2009 BDRemux 1080p GORESEWAGE Cinemania.cc
    Encoded date : UTC 2014-01-25 16:30:56
    Writing application : mkvmerge v6.7.0 (;Back to the Ground;) 64bit built on Jan 8 2014 15:10:52
    Writing library : libebml v1.3.0 libmatroska v1.4.1
    Video #1
    ID : 1
    Format : AVC
    Format/Info : Advanced Video Codec
    Format profile : High@L4.1
    Format settings, CABAC : Yes
    Format settings, ReFrames : 4 frames
    Codec ID : V_MPEG4/ISO/AVC
    Duration : 1h 57mn
    Bit rate mode : Variable
    Maximum bit rate : 33.0 Mbps
    Width : 1 920 pixels
    Height : 1 080 pixels
    Display aspect ratio : 16:9
    Frame rate mode : Constant
    Frame rate : 23.976 fps
    Color space : YUV
    Chroma subsampling : 4:2:0
    Bit depth : 8 bits
    Scan type : Progressive
    Title : The Revenant 2009 BDRemux 1080p GORESEWAGE Cinemania.cc
    Language : English
    Default : Yes
    Forced : No
    Audio #2
    ID : 2
    Format : DTS
    Format/Info : Digital Theater Systems
    Format profile : MA / Core
    Mode : 16
    Format settings, Endianness : Big
    Codec ID : A_DTS
    Duration : 1h 57mn
    Bit rate mode : Variable
    Bit rate : Unknown / 1 509 Kbps
    Channel count : 6 channels
    Channel positions : Front: L C R, Side: L R, LFE
    Sampling rate : 48.0 KHz
    Bit depth : 24 bits
    Compression mode : Lossless / Lossy
    Title : MVO ViruseProject
    Language : Russian
    Default : Yes
    Forced : No
    Audio #3
    ID : 3
    Format : AC-3
    Format/Info : Audio Coding 3
    Mode extension : CM (complete main)
    Format settings, Endianness : Big
    Codec ID : A_AC3
    Duration : 1h 57mn
    Bit rate mode : Constant
    Bit rate : 192 Kbps
    Channel count : 2 channels
    Channel positions : Front: L R
    Sampling rate : 48.0 KHz
    Bit depth : 16 bits
    Compression mode : Lossy
    Stream size : 162 MiB (1%)
    Title : MVO ТНТ
    Language : Russian
    Default : No
    Forced : No
    Audio #4
    ID : 4
    Format : DTS
    Format/Info : Digital Theater Systems
    Format profile : MA / Core
    Mode : 16
    Format settings, Endianness : Big
    Codec ID : A_DTS
    Duration : 1h 57mn
    Bit rate mode : Variable
    Bit rate : Unknown / 1 509 Kbps
    Channel count : 6 channels
    Channel positions : Front: L C R, Side: L R, LFE
    Sampling rate : 48.0 KHz
    Bit depth : 24 bits
    Compression mode : Lossless / Lossy
    Title : Original
    Language : English
    Default : No
    Forced : No
    Audio #5
    ID : 5
    Format : AC-3
    Format/Info : Audio Coding 3
    Mode extension : CM (complete main)
    Format settings, Endianness : Big
    Codec ID : A_AC3
    Duration : 1h 57mn
    Bit rate mode : Constant
    Bit rate : 192 Kbps
    Channel count : 2 channels
    Channel positions : Front: L R
    Sampling rate : 48.0 KHz
    Bit depth : 16 bits
    Compression mode : Lossy
    Stream size : 162 MiB (1%)
    Title : Director;s Commentary
    Language : English
    Default : No
    Forced : No
    Audio #6
    ID : 6
    Format : AC-3
    Format/Info : Audio Coding 3
    Mode extension : CM (complete main)
    Format settings, Endianness : Big
    Codec ID : A_AC3
    Duration : 1h 57mn
    Bit rate mode : Constant
    Bit rate : 192 Kbps
    Channel count : 2 channels
    Channel positions : Front: L R
    Sampling rate : 48.0 KHz
    Bit depth : 16 bits
    Compression mode : Lossy
    Stream size : 162 MiB (1%)
    Title : Actors Audio Commentary
    Language : English
    Default : No
    Forced : No
    Audio #7
    ID : 7
    Format : AC-3
    Format/Info : Audio Coding 3
    Mode extension : CM (complete main)
    Format settings, Endianness : Big
    Codec ID : A_AC3
    Duration : 1h 57mn
    Bit rate mode : Constant
    Bit rate : 192 Kbps
    Channel count : 2 channels
    Channel positions : Front: L R
    Sampling rate : 48.0 KHz
    Bit depth : 16 bits
    Compression mode : Lossy
    Stream size : 162 MiB (1%)
    Title : Visual Effects Commentary
    Language : English
    Default : No
    Forced : No
    Text #8
    ID : 8
    Format : UTF-8
    Codec ID : S_TEXT/UTF8
    Codec ID/Info : UTF-8 Plain Text
    Title : Full ViruseProject
    Language : Russian
    Default : No
    Forced : No
    Text #9
    ID : 9
    Format : UTF-8
    Codec ID : S_TEXT/UTF8
    Codec ID/Info : UTF-8 Plain Text
    Title : Full
    Language : English
    Default : No
    Forced : No
    Text #10
    ID : 10
    Format : UTF-8
    Codec ID : S_TEXT/UTF8
    Codec ID/Info : UTF-8 Plain Text
    Title : Visual Effects Commentary
    Language : English
    Default : No
    Forced : No
    Menu
    00:00:00.000 : en:00:00:00.000
    00:12:58.736 : en:00:12:58.736
    00:22:15.751 : en:00:22:15.751
    00:30:34.624 : en:00:30:34.624
    00:40:58.998 : en:00:40:58.998
    00:50:52.841 : en:00:50:52.841
    00:57:45.545 : en:00:57:45.545
    01:08:24.100 : en:01:08:24.100
    01:21:39.144 : en:01:21:39.144
    01:30:49.027 : en:01:30:49.027
    01:42:21.344 : en:01:42:21.344
    01:54:15.265 : en:01:54:15.265


    Релиз-группа:
    Размер скачиваемого торрента: 29.31 GB (31468591443 Bytes)

    Мертвеход / The Revenant (2009) BDRemux 1080p скачать через торрент бесплатно
    загрузка...
    Рейтинг →
     (голосов: 1, оценка 3/5, голосовать можно 1 раз )

    Другие торренты по теме:

  • Мертвеход / The Revenant (2009) BDRip от Rulya74
  • Мертвеход / The Revenant (2009) BDRip-AVC от MediaClub
  • Мертвеход / The Revenant (2009) BDRip 1080p от MediaClub | P, L
  • Мертвеход / The Revenant (2009) BDRip 720p от MediaClub | P, L
  • Мертвеход / The Revenant (2009) BDRip 1080p скачать через торрент бесплатно
  • Мертвеход / The Revenant (2009) HDRip-AVC от Leo.pard | P


    • Комментарии (0):

      Информация

      Информация

        Посетители, находящиеся в группе Гости, не могут оставлять комментарии в данной новости.

        ↓ Меню



        ↓ Опрос

        А Вы добавили сайт в закладки?
        Да
        Не


        Top 10 за месяц (Фильмы)