.
Авторизация | Регистрация
Хочешь лучшие торренты? Добавь свой email!
Добавить
» » Мертвеход / The Revenant (2009) BDRip 1080p скачать через торрент бесплатно




    Мертвеход / The Revenant (2009) BDRip 1080p скачать через торрент бесплатно

    Опубликовал: Админ | Дата: 27-02-2015, 11:10 | Просмотров: 306



    Детально о кино

    Русское название: Мертвеход
    Русское название в мировом прокате: The Revenant
    Создали в: 2009
    Снималось в: США
    Категория жанра: ужасы, комедия, зомби-муви
    Время просмотра: 01:57:52.857
    Перевод текста 1: Любительский (многоголосый закадровый) ViruseProject Матюги!
    Перевод текста 2: Профессиональный (многоголосый закадровый) ТНТ
    Оригинальная аудиодорожка: Английская
    Субтитры: Русские (Full by Vesel1509), английские (Full, Commentary)
    Киностудия: Putrefactory

    Главный режиссёр: Д. Керри Прайор / D. Kerry Prior

    Актеры: Дэвид Андерс, Крис Уайлд, Луиз Гриффитс, Джеси Кинг, Эрик Пэйн, Бернардо Бадилло, Теда Рейчман, Ричард Рейчман, Уолли Уайт, Флойд Ван Баскирк др.

    Сюжет: Как вы поступите, если ваш лучший друг погибнет? Будете горевать, утешать его родственников, похороните его… И продолжите жить дальше, так как жизнь не стоит на месте… Но что вы будете делать, если ваш погибший друг вернётся? Причем вернётся он, как говорится, в здравом уме и твёрдой памяти...







    Качество фильма: BDRip 1080p (CHD)
    Контейнер: MKV
    Информация о видео кодек: MPEG-4 AVC Video
    Информация о звуке кодек: DTS Audio / Dolby Digital Audio
    Информация о видео: MPEG-4 AVC Video / 9071 kbps / 1920x816p / 23,976 fps / 2.35:1 / High Profile 4.1
    Информация о звуке 1: Русский / DTS Audio / 5.1 / 48 kHz / 1536 kbps / 24-bit / Любительский (многоголосый закадровый) ViruseProject
    Информация о звуке 2: Русский / Dolby Digital Audio / 2.0 / 48 kHz / 192 kbps / 16-bit / Профессиональный (многоголосый закадровый) ТНТ
    Информация о звуке 3: English / DTS Audio / 5.1 / 48 kHz / 1536 kbps / 24-bit / Original
    Информация о звуке 4: English / Dolby Digital Audio / 2.0 / 48 kHz / 192 kbps / 16-bit / Director;s Commentary
    Информация о звуке 5: English / Dolby Digital Audio / 2.0 / 48 kHz / 192 kbps / 16-bit / Actors Audio Commentary
    Информация о звуке 6: English / Dolby Digital Audio / 2.0 / 48 kHz / 192 kbps / 16-bit / Visual Effects Commentary
    Навигация по главам: да

    Дополнительная информация
    MVO ViruseProject:

    Перевод на русский язык - Vesel1509 (Артём Веселовский)

    Озвучка:

    * viruse (Виталий Емельянов) - Джоуи, Мисис Агматик и другие
    * europamusic (Сергей Калугин) - Барт и другие
    * _Lost_Girl_ (Полина Касаткина) - все женские

    Скриншот с названием фильма

    Скриншоты для ознакомления

    Полноразмерный постер

    MediaInfo
    C:/GORESEWAGE/The Revenant 2009 BDRip 1080p GORESEWAGE Cinemania.cc.mkv
    General
    Unique ID : 242456908760656629965377090517147091685 (0xB66780885A317E42AF6093BE1DCC82E5)
    Complete name : C:/GORESEWAGE/The Revenant 2009 BDRip 1080p GORESEWAGE Cinemania.cc.mkv
    Format : Matroska
    Format version : Version 4 / Version 2
    File size : 10.6 GiB
    Duration : 1h 57mn
    Overall bit rate : 12.9 Mbps
    Movie name : The Revenant 2009 BDRip 1080p GORESEWAGE Cinemania.cc
    Encoded date : UTC 2014-01-26 22:42:13
    Writing application : mkvmerge v6.7.0 (;Back to the Ground;) 64bit built on Jan 8 2014 15:10:52
    Writing library : libebml v1.3.0 libmatroska v1.4.1
    Video #1
    ID : 1
    Format : AVC
    Format/Info : Advanced Video Codec
    Format profile : High@L4.1
    Format settings, CABAC : Yes
    Format settings, ReFrames : 5 frames
    Codec ID : V_MPEG4/ISO/AVC
    Duration : 1h 57mn
    Bit rate : 9 071 Kbps
    Width : 1 920 pixels
    Height : 816 pixels
    Display aspect ratio : 2.35:1
    Frame rate mode : Constant
    Frame rate : 23.976 fps
    Color space : YUV
    Chroma subsampling : 4:2:0
    Bit depth : 8 bits
    Scan type : Progressive
    Bits/(Pixel*Frame) : 0.241
    Stream size : 7.26 GiB (69%)
    Title : The Revenant 2009 BDRip 1080p GORESEWAGE Cinemania.cc
    Writing library : x264 core 119 r2106 07efeb4
    Encoding settings : cabac=1 / ref=5 / deblock=1:-3:-3 / analyse=0x3:0x113 / me=umh / subme=10 / psy=1 / psy_rd=1.05:0.10 / mixed_ref=1 / me_range=48 / chroma_me=1 / trellis=2 / 8x8dct=1 / cqm=1 / deadzone=21,11 / fast_pskip=0 / chroma_qp_offset=-2 / threads=12 / sliced_threads=0 / nr=0 / decimate=1 / interlaced=0 / bluray_compat=0 / constrained_intra=0 / bframes=6 / b_pyramid=2 / b_adapt=2 / b_bias=0 / direct=3 / weightb=1 / open_gop=0 / weightp=2 / keyint=250 / keyint_min=23 / scenecut=40 / intra_refresh=0 / rc_lookahead=60 / rc=2pass / mbtree=1 / bitrate=9071 / ratetol=2.0 / qcomp=0.70 / qpmin=3 / qpmax=69 / qpstep=4 / cplxblur=20.0 / qblur=0.5 / vbv_maxrate=40000 / vbv_bufsize=30000 / nal_hrd=none / ip_ratio=1.40 / aq=2:1.00
    Language : English
    Default : Yes
    Forced : No
    Audio #2
    ID : 2
    Format : DTS
    Format/Info : Digital Theater Systems
    Mode : 16
    Format settings, Endianness : Big
    Codec ID : A_DTS
    Duration : 1h 57mn
    Bit rate mode : Constant
    Bit rate : 1 510 Kbps
    Channel count : 6 channels
    Channel positions : Front: L C R, Side: L R, LFE
    Sampling rate : 48.0 KHz
    Bit depth : 24 bits
    Compression mode : Lossy
    Stream size : 1.24 GiB (12%)
    Title : MVO ViruseProject
    Language : Russian
    Default : Yes
    Forced : No
    Audio #3
    ID : 3
    Format : AC-3
    Format/Info : Audio Coding 3
    Mode extension : CM (complete main)
    Format settings, Endianness : Big
    Codec ID : A_AC3
    Duration : 1h 57mn
    Bit rate mode : Constant
    Bit rate : 192 Kbps
    Channel count : 2 channels
    Channel positions : Front: L R
    Sampling rate : 48.0 KHz
    Bit depth : 16 bits
    Compression mode : Lossy
    Stream size : 162 MiB (1%)
    Title : MVO ТНТ
    Language : Russian
    Default : No
    Forced : No
    Audio #4
    ID : 4
    Format : DTS
    Format/Info : Digital Theater Systems
    Mode : 16
    Format settings, Endianness : Big
    Codec ID : A_DTS
    Duration : 1h 57mn
    Bit rate mode : Constant
    Bit rate : 1 509 Kbps
    Channel count : 6 channels
    Channel positions : Front: L C R, Side: L R, LFE
    Sampling rate : 48.0 KHz
    Bit depth : 24 bits
    Compression mode : Lossy
    Stream size : 1.24 GiB (12%)
    Title : Original
    Language : English
    Default : No
    Forced : No
    Audio #5
    ID : 5
    Format : AC-3
    Format/Info : Audio Coding 3
    Mode extension : CM (complete main)
    Format settings, Endianness : Big
    Codec ID : A_AC3
    Duration : 1h 57mn
    Bit rate mode : Constant
    Bit rate : 192 Kbps
    Channel count : 2 channels
    Channel positions : Front: L R
    Sampling rate : 48.0 KHz
    Bit depth : 16 bits
    Compression mode : Lossy
    Stream size : 162 MiB (1%)
    Title : Director;s Commentary
    Language : English
    Default : No
    Forced : No
    Audio #6
    ID : 6
    Format : AC-3
    Format/Info : Audio Coding 3
    Mode extension : CM (complete main)
    Format settings, Endianness : Big
    Codec ID : A_AC3
    Duration : 1h 57mn
    Bit rate mode : Constant
    Bit rate : 192 Kbps
    Channel count : 2 channels
    Channel positions : Front: L R
    Sampling rate : 48.0 KHz
    Bit depth : 16 bits
    Compression mode : Lossy
    Stream size : 162 MiB (1%)
    Title : Actors Audio Commentary
    Language : English
    Default : No
    Forced : No
    Audio #7
    ID : 7
    Format : AC-3
    Format/Info : Audio Coding 3
    Mode extension : CM (complete main)
    Format settings, Endianness : Big
    Codec ID : A_AC3
    Duration : 1h 57mn
    Bit rate mode : Constant
    Bit rate : 192 Kbps
    Channel count : 2 channels
    Channel positions : Front: L R
    Sampling rate : 48.0 KHz
    Bit depth : 16 bits
    Compression mode : Lossy
    Stream size : 162 MiB (1%)
    Title : Visual Effects Commentary
    Language : English
    Default : No
    Forced : No
    Text #8
    ID : 8
    Format : UTF-8
    Codec ID : S_TEXT/UTF8
    Codec ID/Info : UTF-8 Plain Text
    Title : Full ViruseProject
    Language : Russian
    Default : No
    Forced : No
    Text #9
    ID : 9
    Format : UTF-8
    Codec ID : S_TEXT/UTF8
    Codec ID/Info : UTF-8 Plain Text
    Title : Full
    Language : English
    Default : No
    Forced : No
    Text #10
    ID : 10
    Format : UTF-8
    Codec ID : S_TEXT/UTF8
    Codec ID/Info : UTF-8 Plain Text
    Title : Visual Effects Commentary
    Language : English
    Default : No
    Forced : No
    Menu
    00:00:00.000 : en:00:00:00.000
    00:12:58.736 : en:00:12:58.736
    00:22:15.751 : en:00:22:15.751
    00:30:34.624 : en:00:30:34.624
    00:40:58.998 : en:00:40:58.998
    00:50:52.841 : en:00:50:52.841
    00:57:45.545 : en:00:57:45.545
    01:08:24.100 : en:01:08:24.100
    01:21:39.144 : en:01:21:39.144
    01:30:49.027 : en:01:30:49.027
    01:42:21.344 : en:01:42:21.344
    01:54:15.265 : en:01:54:15.265


    Релиз-группа:
    Размер скачиваемого торрента: 10.59 GB (11368275326 Bytes)

    Мертвеход / The Revenant (2009) BDRip 1080p скачать через торрент бесплатно
    загрузка...
    Рейтинг →
     (голосов: 1, оценка 5/5, голосовать можно 1 раз )

    Другие торренты по теме:

  • Мертвеход / The Revenant (2009) BDRip от Rulya74
  • Мертвеход / The Revenant (2009) BDRip-AVC от MediaClub
  • Мертвеход / The Revenant (2009) BDRip 1080p от MediaClub | P, L
  • Мертвеход / The Revenant (2009) BDRip 720p от MediaClub | P, L
  • Мертвеход / The Revenant (2009) BDRemux 1080p скачать через торрент бесплатно
  • Мертвеход / The Revenant (2009) HDRip-AVC от Leo.pard | P


    • Комментарии (0):

      Информация

      Информация

        Посетители, находящиеся в группе Гости, не могут оставлять комментарии в данной новости.

        ↓ Меню



        ↓ Опрос

        А Вы добавили сайт в закладки?
        Да
        Не


        Top 10 за месяц (Фильмы)