.
Авторизация | Регистрация
Хочешь лучшие торренты? Добавь свой email!
Добавить
» » Соломенные псы / Straw Dogs (2011) BDRip-AVC | D, А скачать торрент бесплатно




    Соломенные псы / Straw Dogs (2011) BDRip-AVC | D, А скачать торрент бесплатно

    Опубликовал: Админ | Дата: 27-02-2015, 11:10 | Просмотров: 263

    Соломенные псы / Straw Dogs (2010) BDRip-AVC


    Создали в: 2011
    Категория жанра: Боевик, Триллер, Драма
    Снималось в: США, Screen Gems, Battleplan Productions
    Время просмотра: 01:49:43
    Перевод текста: Дублированный, Авторский (одноголосый, закадровый) А.Гаврилов
    Оригинальная звуковая дорожка: английский
    Язык субтитров: русские, английские

    Главный режиссер: Род Лури
    Актеры: Джеймс Марсден, Кейт Босворт, Александр Скарсгард, Джеймс Вудс, Доминик Пурселл, Риз Койро, Билли Луш, Лас Алонсо, Уилла Холлэнд, Уолтон Гоггинс...

    Сюжет фильма:
    Дэвид и Эми — молодая благополучная пара, которая переезжает в маленький провинциальный городок, где безмятежная идиллия скоро оборачивается настоящим адом. На поверхность выходят страшные секреты прошлого, и смертоносные страсти вырываются из-под контроля. Загнанные в ловушку группой местных во главе с безжалостным хищником, герои вынуждены провести ночь непрерывной кровавой резни. Не имея путей к отступлению, Дэвид и Эми понимают: их единственный выход — стать ещё более безумными, чем их беспощадные палачи.



    Качество фильма видео: BDRip-AVC
    Информация о видео: MPEG-4 AVC/H.264, 1152 x 480, ~2559 Кбит/сек
    Информация о звуке 1: AC3 5.1, 384 Кбит/сек - Дублированный
    Информация о звуке 2: AC3 5.1, 448 Кбит/сек - Авторский (одноголосый, закадровый) А.Гаврилов
    Информация о звуке 3: AC3 5.1, 384 Кбит/сек - оригинал
    Сэмпл

    MediaInfo
    Format : Matroska
    Format version : Version 2
    File size : 2.89 GiB
    Duration : 1h 49mn
    Overall bit rate : 3 776 Kbps
    Encoded date : UTC 2014-01-29 00:42:14
    Writing application : mkvmerge v5.3.0 (;I could have danced;) built on Feb 9 2012 10:38:07
    Writing library : libebml v1.2.3 libmatroska v1.3.0
    Attachment : Yes

    Video
    ID : 1
    Format : AVC
    Format/Info : Advanced Video Codec
    Format profile : High@L4.1
    Format settings, CABAC : Yes
    Format settings, ReFrames : 11 frames
    Codec ID : V_MPEG4/ISO/AVC
    Duration : 1h 49mn
    Bit rate : 2 559 Kbps
    Width : 1 152 pixels
    Height : 480 pixels
    Display aspect ratio : 2.40:1
    Frame rate mode : Constant
    Frame rate : 23.976 fps
    Color space : YUV
    Chroma subsampling : 4:2:0
    Bit depth : 8 bits
    Scan type : Progressive
    Bits/(Pixel*Frame) : 0.193
    Stream size : 1.90 GiB (66%)
    Writing library : x264 core 118 r2085 8a62835
    Encoding settings : cabac=1 / ref=11 / deblock=1:-3:-2 / analyse=0x3:0x133 / me=umh / subme=10 / psy=1 / psy_rd=1.00:0.00 / mixed_ref=1 / me_range=32 / chroma_me=1 / trellis=2 / 8x8dct=1 / cqm=0 / deadzone=21,11 / fast_pskip=0 / chroma_qp_offset=-2 / threads=12 / sliced_threads=0 / nr=0 / decimate=1 / interlaced=0 / bluray_compat=0 / constrained_intra=0 / bframes=9 / b_pyramid=2 / b_adapt=2 / b_bias=0 / direct=3 / weightb=1 / open_gop=0 / weightp=2 / keyint=250 / keyint_min=23 / scenecut=40 / intra_refresh=0 / rc_lookahead=70 / rc=2pass / mbtree=1 / bitrate=2559 / ratetol=1.0 / qcomp=0.65 / qpmin=0 / qpmax=69 / qpstep=4 / cplxblur=20.0 / qblur=0.5 / ip_ratio=1.40 / aq=1:1.00
    Language : English
    Default : Yes
    Forced : No

    Audio #1
    ID : 2
    Format : AC-3
    Format/Info : Audio Coding 3
    Mode extension : CM (complete main)
    Format settings, Endianness : Big
    Codec ID : A_AC3
    Duration : 1h 49mn
    Bit rate mode : Constant
    Bit rate : 384 Kbps
    Channel(s) : 6 channels
    Channel positions : Front: L C R, Side: L R, LFE
    Sampling rate : 48.0 KHz
    Bit depth : 16 bits
    Compression mode : Lossy
    Stream size : 301 MiB (10%)
    Title : DUB
    Language : Russian
    Default : Yes
    Forced : No

    Audio #2
    ID : 3
    Format : AC-3
    Format/Info : Audio Coding 3
    Mode extension : CM (complete main)
    Format settings, Endianness : Big
    Codec ID : A_AC3
    Duration : 1h 49mn
    Bit rate mode : Constant
    Bit rate : 448 Kbps
    Channel(s) : 6 channels
    Channel positions : Front: L C R, Side: L R, LFE
    Sampling rate : 48.0 KHz
    Bit depth : 16 bits
    Compression mode : Lossy
    Stream size : 352 MiB (12%)
    Title : Авторский А.Гаврилов
    Language : Russian
    Default : No
    Forced : No

    Audio #3
    ID : 4
    Format : AC-3
    Format/Info : Audio Coding 3
    Mode extension : CM (complete main)
    Format settings, Endianness : Big
    Codec ID : A_AC3
    Duration : 1h 49mn
    Bit rate mode : Constant
    Bit rate : 384 Kbps
    Channel(s) : 6 channels
    Channel positions : Front: L C R, Side: L R, LFE
    Sampling rate : 48.0 KHz
    Bit depth : 16 bits
    Compression mode : Lossy
    Stream size : 301 MiB (10%)
    Title : оригинал
    Language : English
    Default : No
    Forced : No

    Text #1
    ID : 5
    Format : UTF-8
    Codec ID : S_TEXT/UTF8
    Codec ID/Info : UTF-8 Plain Text
    Language : Russian
    Default : Yes
    Forced : No

    Text #2
    ID : 6
    Format : UTF-8
    Codec ID : S_TEXT/UTF8
    Codec ID/Info : UTF-8 Plain Text
    Language : English
    Default : No
    Forced : No

    Скриншоты для ознакомления

    Размер скачиваемого торрента: 2.89 GB (3107556122 Bytes)

    Соломенные псы / Straw Dogs (2011) BDRip-AVC | D, А торрент скачать бесплатно
    загрузка...
    Рейтинг →
     (голосов: 1, оценка 4/5, голосовать можно 1 раз )

    Другие торренты по теме:

  • Соломенные псы / Straw Dogs (2011) BDRip-AVC | iPad
  • Соломенные псы / Straw Dogs (1971) BDRip-AVC | P, А
  • Соломенные псы / Straw Dogs (2011) Blu-ray 1080p | D
  • Соломенные псы / Straw Dogs (2011) BDRip-AVC от ExKinoRay | D


    • Комментарии (0):

      Информация

      Информация

        Посетители, находящиеся в группе Гости, не могут оставлять комментарии в данной новости.

        ↓ Меню



        ↓ Опрос

        А Вы добавили сайт в закладки?
        Да
        Не


        Top 10 за месяц (Фильмы)