.
Авторизация | Регистрация
Хочешь лучшие торренты? Добавь свой email!
Добавить
» » Белая футболка / White T (2013) SATRip от MediaClub | P2 скачать торрент бесплатно




    Белая футболка / White T (2013) SATRip от MediaClub | P2 скачать торрент бесплатно

    Опубликовал: Админ | Дата: 27-02-2015, 11:10 | Просмотров: 244



    Детально о кино
    Русское название: Белая футболка
    Русское название в мировом прокате: White T
    Создали в: 2013
    Категория жанра: Kомедия
    Главный режиссер: Лэнс Фрэнк
    Актеры: Джерод Миксон, Ямал Миксон, Эрик Робертс, Дион Сандерс, Фэйзон Лав, Тони Кокс, Том ’Тайни’ Листер мл., Дот-Мари Джонс, Тоун Лок, Джерри Бедноб

    Сюжет фильма:
    Герберт и Генри братья-близнецы, мечтающие стать крупнейшими рэп-звездами. Их шансы на успех повышаются, после того как они покупают белую футболку с золотой биркой, благодаря которой они смогут выступить с самым легендарным рэппером в мире. Проблема лишь в том, что есть еврейский мальчик Кевин, мечтающий стать певцом, которому удается украсть столь ценную футболку…



    Снималось в: США
    Киностудия: Eleventh Entertainment, Prefect Films
    Время просмотра: 01:29:22
    Перевод текста: Профессиональный двухголосый

    Файл
    Кодек для видео: XviD
    Качество фильма: SATRip
    Информация о видео: 1901 Кбит/с, 720x304, 25.000 кадр/с
    Информация о звуке: Русский (АС3, 2 ch, 192 Кбит/с)

    Семпл

    Скриншоты для ознакомления

    MI
    Общее
    Полное имя : Belaja.futbolka.2013.SATRip.MediaClub.avi
    Формат : AVI
    Формат/Информация : Audio Video Interleave
    Размер файла : 1,31 Гбайт
    Продолжительность : 1 ч. 29 м.
    Общий поток : 2102 Кбит/сек
    Название фильма : MediaClub
    Программа кодирования : VirtualDubMod 1.5.10.2 (build 2540/release)
    Библиотека кодирования : VirtualDubMod build 2540/release

    Видео
    Идентификатор : 0
    Формат : MPEG-4 Visual
    Профиль формата : Advanced Simple@L5
    Параметр BVOP формата : 2
    Параметр QPel формата : Нет
    Параметр GMC формата : Без точки перехода
    Параметр матрицы формата : Default (MPEG)
    Идентификатор кодека : XVID
    Идентификатор кодека/Подсказка : XviD
    Продолжительность : 1 ч. 29 м.
    Битрейт : 1901 Кбит/сек
    Ширина : 720 пикселей
    Высота : 304 пикселя
    Соотношение сторон : 2,35:1
    Частота кадров : 25,000 кадров/сек
    Цветовое пространство : YUV
    Субдискретизация насыщенности : 4:2:0
    Битовая глубина : 8 бит
    Тип развёртки : Прогрессивная
    Метод сжатия : С потерями
    Бит/(Пиксели*Кадры) : 0.347
    Размер потока : 1,19 Гбайт (90%)
    Библиотека кодирования : XviD 65

    Аудио
    Идентификатор : 1
    Формат : AC-3
    Формат/Информация : Audio Coding 3
    Расширение режима : CM (complete main)
    Параметр Endianness формата : Big
    Идентификатор кодека : 2000
    Продолжительность : 1 ч. 29 м.
    Вид битрейта : Постоянный
    Битрейт : 192 Кбит/сек
    Каналы : 2 канала
    Расположение каналов : Front: L R
    Частота : 48,0 КГц
    Битовая глубина : 16 бит
    Метод сжатия : С потерями
    Задержка видео : 8 мс.
    Размер потока : 123 Мбайт (9%)
    Выравнивание : Разделение по промежуткам
    Продолжительность промежутка : 40 мс. (1,00 видеокадр)
    Время предзагрузки промежутка : 500 мс.


    Релиз подготовил:
    Залил: poja
    Размер скачиваемого торрента: 1.31 GB (1409003520 Bytes)

    Белая футболка / White T (2013) SATRip от MediaClub | P2 торрент скачать бесплатно
    загрузка...
    Рейтинг →
     (голосов: 1, оценка 5/5, голосовать можно 1 раз )

    Другие торренты по теме:

  • Белая футболка / White T (2013) DVB от MediaClub | P2


    • Комментарии (0):

      Информация

      Информация

        Посетители, находящиеся в группе Гости, не могут оставлять комментарии в данной новости.

        ↓ Меню



        ↓ Опрос

        А Вы добавили сайт в закладки?
        Да
        Не


        Top 10 за месяц (Фильмы)