.
Авторизация | Регистрация
Хочешь лучшие торренты? Добавь свой email!
Добавить
» » Омен 2: Дэмиен / Omen 2: Damien (1978) BDRip 720p by msltel |P, A скачать торрент бесплатно




    Омен 2: Дэмиен / Omen 2: Damien (1978) BDRip 720p by msltel |P, A скачать торрент бесплатно

    Опубликовал: Админ | Дата: 27-02-2015, 11:10 | Просмотров: 354



    Русское название: Омен 2: Дэмиен
    Русское название в мировом прокате: Omen 2: Damien
    Создали в: 1978
    Категория жанра: Ужасы, детектив
    Снималось в: США, Великобритания, 20th Century Fox Film Corporation, Twentieth Century-Fox Productions Ltd.
    Главный режиссер: Дон Тейлор, Майк Ходжес
    Актеры: Уильям Холден, Ли Грант, Джонатан Скот-Тэйлор, Роберт Фоксуорт, Николас Прайор, Лью Эйрз, Сильвия Сидни, Лэнс Хенриксен, Элизабет Шеперд, Лукас Донат

    Сюжет фильма: Семь лет прошло с того дня, как Дэмиен чудом избежал смерти от руки своего отца. Теперь ему 13, и он живет вместе со своим дядей Ричардом Торном, тетей и двоюродным братом Марком. Пока юный Антихрист познаёт свою чудовищную силу и как ею пользоваться, за его безопасностью следят множество служителей Дьявола, жестоко уничтожая всех неугодных. Его дядя постепенно понимает, что мальчик не так невинен, как может показаться, и ему открывается чудовищная правда. Вооружившись семью древними кинжалами, Торн собирается очистить мир от самой страшной нечисти на земле. Но многие пытались убить сына Сатаны, и теперь все они в могиле. Сможет ли это сделать Ричард Торн или присоединится к своим предшественникам в качестве трупа?...

    Качество фильма: BDRip 720p
    Размер скачиваемого торрента: 6.8 ГБ
    Время просмотра: 01:46:51

    Информация о видео: MPEG-4 AVC, 5000 Kбит/с, 1280x542
    Информация о звуке 1: русский, 48 kHz, AC3, 6 ch, 448 kbps avg, Профессиональный многоголосый
    Информация о звуке 2: русский, 48 kHz, AC3, 6 ch, 640 kbps avg, Авторский, Леонид Володарский
    Информация о звуке 3: русский, 48 kHz, AC3, 6 ch, 640 kbps avg, Авторский, Василий Горчаков
    Информация о звуке 4: русский, 48 kHz, AC3, 6 ch, 448 kbps avg, Авторский, Юрий Живов

    Внешние файлы
    Информация о звуке: русский, 48 kHz, AC3, 6 ch, 448 kbps avg, Авторский, Алексей Михалёв
    Информация о звуке: русский, 48 kHz, AC3, 6 ch, 384 kbps avg, Авторский, Михаил Иванов
    Информация о звуке: русский, 48 kHz, AC3, 6 ch, 640 kbps avg, Авторский, Фёдоров
    Информация о звуке: английский, 48 kHz, AC3, 6 ch, 448 kbps avg, Оригинал
    Субтитры: русские
    Субтитры: английские

    Исходник: Starlet (Кинозал)

    Сравнение с исходником



    Награды
    Сатурн, 1979 год
    Номинации (1):
    Лучшие спецэффекты
    MediaInfo Лог х264
    Общее
    Полное имя : E:VideoOmen 2.Damien.1978.x264.BDRip.720pOmen 2.Damien.1978.AVO.rus.А.Михалёв.ac3
    Формат : AC-3
    Формат/Информация : Audio Coding 3
    Размер файла : 342 Мбайт
    Продолжительность : 1 ч. 46 м.
    Режим общего битрейта : Постоянный
    Общий поток : 448 Кбит/сек

    Аудио
    Формат : AC-3
    Формат/Информация : Audio Coding 3
    Расширение режима : CM (complete main)
    Параметр Endianness формата : Big
    Продолжительность : 1 ч. 46 м.
    Вид битрейта : Постоянный
    Битрейт : 448 Кбит/сек
    Каналы : 6 каналов
    Расположение каналов : Front: L C R, Side: L R, LFE
    Частота : 48,0 КГц
    Битовая глубина : 16 бит
    Метод сжатия : С потерями
    Размер потока : 342 Мбайт (100%)

    Общее
    Полное имя : E:VideoOmen 2.Damien.1978.x264.BDRip.720pOmen 2.Damien.1978.AVO.rus.М.Иванов.ac3
    Формат : AC-3
    Формат/Информация : Audio Coding 3
    Размер файла : 294 Мбайт
    Продолжительность : 1 ч. 46 м.
    Режим общего битрейта : Постоянный
    Общий поток : 384 Кбит/сек

    Аудио
    Формат : AC-3
    Формат/Информация : Audio Coding 3
    Расширение режима : CM (complete main)
    Параметр Endianness формата : Big
    Продолжительность : 1 ч. 46 м.
    Вид битрейта : Постоянный
    Битрейт : 384 Кбит/сек
    Каналы : 6 каналов
    Расположение каналов : Front: L C R, Side: L R, LFE
    Частота : 48,0 КГц
    Битовая глубина : 16 бит
    Метод сжатия : С потерями
    Размер потока : 294 Мбайт (100%)

    Общее
    Полное имя : E:VideoOmen 2.Damien.1978.x264.BDRip.720pOmen 2.Damien.1978.AVO.rus.Фёдоров.ac3
    Формат : AC-3
    Формат/Информация : Audio Coding 3
    Размер файла : 489 Мбайт
    Продолжительность : 1 ч. 46 м.
    Режим общего битрейта : Постоянный
    Общий поток : 640 Кбит/сек

    Аудио
    Формат : AC-3
    Формат/Информация : Audio Coding 3
    Расширение режима : CM (complete main)
    Параметр Endianness формата : Big
    Продолжительность : 1 ч. 46 м.
    Вид битрейта : Постоянный
    Битрейт : 640 Кбит/сек
    Каналы : 6 каналов
    Расположение каналов : Front: L C R, Side: L R, LFE
    Частота : 48,0 КГц
    Битовая глубина : 16 бит
    Метод сжатия : С потерями
    Размер потока : 489 Мбайт (100%)

    Общее
    Полное имя : E:VideoOmen 2.Damien.1978.x264.BDRip.720pOmen 2.Damien.1978.eng.srt
    Формат : SubRip
    Размер файла : 72,4 Кбайт

    Текст
    Формат : SubRip
    Метод сжатия : Без потерь

    Общее
    Полное имя : E:VideoOmen 2.Damien.1978.x264.BDRip.720pOmen 2.Damien.1978.Original.eng.ac3
    Формат : AC-3
    Формат/Информация : Audio Coding 3
    Размер файла : 342 Мбайт
    Продолжительность : 1 ч. 46 м.
    Режим общего битрейта : Постоянный
    Общий поток : 448 Кбит/сек

    Аудио
    Формат : AC-3
    Формат/Информация : Audio Coding 3
    Расширение режима : CM (complete main)
    Параметр Endianness формата : Big
    Продолжительность : 1 ч. 46 м.
    Вид битрейта : Постоянный
    Битрейт : 448 Кбит/сек
    Каналы : 6 каналов
    Расположение каналов : Front: L C R, Side: L R, LFE
    Частота : 48,0 КГц
    Битовая глубина : 16 бит
    Метод сжатия : С потерями
    Размер потока : 342 Мбайт (100%)

    Общее
    Полное имя : E:VideoOmen 2.Damien.1978.x264.BDRip.720pOmen 2.Damien.1978.rus.srt
    Формат : SubRip
    Размер файла : 77,6 Кбайт

    Текст
    Формат : SubRip
    Метод сжатия : Без потерь

    Общее
    Уникальный идентификатор : 174543558239517708734339787555491260551 (0x834FDDD5A73551AEBF77F9C1205FA887)
    Полное имя : E:VideoOmen 2.Damien.1978.x264.BDRip.720pOmen 2.Damien.1978.x264.BDRip.720p.mkv
    Формат : Matroska
    Версия формата : Version 4 / Version 2
    Размер файла : 5,37 Гбайт
    Продолжительность : 1 ч. 50 м.
    Общий поток : 6984 Кбит/сек
    Название фильма : Омен 2: Дэмиен / Omen 2: Damien / 1978 / BDRip -- STarankov
    Дата кодирования : UTC 2014-01-29 09:20:39
    Программа кодирования : mkvmerge v6.6.0 (;The Edge Of The In Between;) built on Dec 1 2013 17:55:00
    Библиотека кодирования : libebml v1.3.0 libmatroska v1.4.1

    Видео
    Идентификатор : 1
    Формат : AVC
    Формат/Информация : Advanced Video Codec
    Профиль формата : High@L4.1
    Параметр CABAC формата : Да
    Параметр ReFrames формата : 9 кадров
    Идентификатор кодека : V_MPEG4/ISO/AVC
    Продолжительность : 1 ч. 50 м.
    Битрейт : 4669 Кбит/сек
    Номинальный битрейт : 5000 Кбит/сек
    Ширина : 1280 пикселей
    Высота : 542 пикселя
    Соотношение сторон : 2,35:1
    Режим частоты кадров : Постоянный
    Частота кадров : 23,976 кадра/сек
    Цветовое пространство : YUV
    Субдискретизация насыщенности : 4:2:0
    Битовая глубина : 8 бит
    Тип развёртки : Прогрессивная
    Бит/(Пиксели*Кадры) : 0.281
    Размер потока : 3,59 Гбайт (67%)
    Библиотека кодирования : x264 core 138 r2358 9e941d1
    Залил: msltel
    Размер скачиваемого торрента: 6.80 GB (7300858645 Bytes)


    Омен 2: Дэмиен / Omen 2: Damien (1978) BDRip 720p by msltel |P, A торрент скачать бесплатно
    загрузка...
    Рейтинг →
     (голосов: 1, оценка 3/5, голосовать можно 1 раз )

    Другие торренты по теме:

  • Омен 2: Дэмиен / Omen 2: Damien (1978) BDRip 1080p by msltel |P, A скачать через торрент бесплатно
  • Омен 2: Дэмиен / Omen II: Damien (1978) BDRip | P


    • Комментарии (0):

      Информация

      Информация

        Посетители, находящиеся в группе Гости, не могут оставлять комментарии в данной новости.

        ↓ Меню



        ↓ Опрос

        А Вы добавили сайт в закладки?
        Да
        Не


        Top 10 за месяц (Фильмы)