.
Авторизация | Регистрация
Хочешь лучшие торренты? Добавь свой email!
Добавить
» » Телекинез / Carrie (2013) BDRemux 1080p | Unrated скачать через торрент бесплатно




    Телекинез / Carrie (2013) BDRemux 1080p | Unrated скачать через торрент бесплатно

    Опубликовал: Админ | Дата: 27-02-2015, 11:10 | Просмотров: 232



    Детально о кино

    Русское название: Телекинез
    Русское название в мировом прокате: Carrie
    Создали в: 2013
    Снималось в: США
    Категория жанра: ужасы, триллер, драма
    Время просмотра: 01:40:56
    Перевод текста 1: Профессиональный (дублированный) iTunes Russia AVO А. Дольский (на альтернативную концовку)
    Перевод текста 2: Профессиональный (дублированный) Line VO lord666 (на альтернативную концовку)
    Перевод текста 3: Авторский (одноголосый закадровый) А. Дольский
    Перевод текста 4: Любительский (одноголосый закадровый) lord666
    Оригинальная аудиодорожка: Английская
    Субтитры: Русские (Forced на надписи, Full Notabenoid), английские (Full, Full SDH)
    Киностудия: Metro-Goldwyn-Mayer (MGM), Screen Gems, Misher Films

    Главный режиссёр: Кимберли Пирс / Kimberly Peirce

    Актеры: Хлоя Грейс Морец, Джулианна Мур, Джуди Грир, Портия Даблдэй, Габриэлла Уайлд, Алекс Расселл, Зои Белкин, Энсел Эльгорт, Саманта Вайнштейн, Карисса Стрэйн и др.

    Сюжет: Невзрачная старшеклассница по имени Кэрри с рождения обладает способностями телекинеза. Давление со стороны фанатично религиозной мамочки и постоянные издёвки сверстников лишь способствует развитию её сверхъестественных способностей. На выпускном одноклассники решают жестоко подшутить над ней, что приводит к фатальным последствиям.







    Официальный сайт

    Качество фильма: BDRemux 1080p (Carrie 2013 BluRay 1080p AVC DTS-HD MA5.1-Nio@CHDBits)
    Контейнер: MKV
    Информация о видео кодек: MPEG-4 AVC Video
    Информация о звуке кодек: DTS-HD Master Audio / Dolby Digital Audio
    Информация о видео: MPEG-4 AVC Video / 27936 kbps / 1920x1080p / 23,976 fps / 16:9 / High Profile 4.1
    Информация о звуке 1: Русский / Dolby Digital Audio / 5.1 / 48 kHz / 384 kbps / 16-bit / Профессиональный (дублированный) iTunes Russia AVO А. Дольский (на альтернативную концовку)
    Информация о звуке 2: Русский / Dolby Digital Audio / 2.0 / 48 kHz / 224 kbps / 16-bit / Профессиональный (дублированный) Line VO lord666 (на альтернативную концовку)
    Информация о звуке 3: Русский / DTS-HD Master Audio / 5.1 / 48 kHz / 3389 kbps / 24-bit (DTS Core: 5.1 / 48 kHz / 1536 kbps / 24-bit) / Авторский (одногоголосый закадровый) А. Дольский
    Информация о звуке 4: Русский / Dolby Digital Audio / 5.1 / 48 kHz / 640 kbps / 16-bit / Любительский (одноголосый закадровый) lord666
    Информация о звуке 5: English / DTS-HD Master Audio / 5.1 / 48 kHz / 3697 kbps / 24-bit (DTS Core: 5.1 / 48 kHz / 1536 kbps / 24-bit) / Original
    Навигация по главам: да

    * Перевод Андрея Дольского доступен благодаря пользователям форума E1080.

    Скриншот с названием фильма

    Скриншоты для ознакомления

    Полноразмерный постер

    MediaInfo
    C:GORESEWAGECarrie 2013 Unrated BDRemux 1080p GORESEWAGE.mkv
    General
    Unique ID : 193761180999212810558025175040149772027 (0x91C50BCA3C56EB688B2F772FBB8D56FB)
    Complete name : C:GORESEWAGECarrie 2013 Unrated BDRemux 1080p GORESEWAGE.mkv
    Format : Matroska
    Format version : Version 4 / Version 2
    File size : 25.3 GiB
    Duration : 1h 40mn
    Overall bit rate mode : Variable
    Overall bit rate : 36.0 Mbps
    Movie name : Carrie 2013 Unrated BDRemux 1080p GORESEWAGE
    Encoded date : UTC 2014-01-28 15:48:24
    Writing application : mkvmerge v6.7.0 (;Back to the Ground;) 64bit built on Jan 8 2014 15:10:52
    Writing library : libebml v1.3.0 libmatroska v1.4.1
    Attachment : Yes
    Video #1
    ID : 1
    Format : AVC
    Format/Info : Advanced Video Codec
    Format profile : High@L4.1
    Format settings, CABAC : Yes
    Format settings, ReFrames : 4 frames
    Codec ID : V_MPEG4/ISO/AVC
    Duration : 1h 40mn
    Bit rate mode : Variable
    Maximum bit rate : 30.0 Mbps
    Width : 1 920 pixels
    Height : 1 080 pixels
    Display aspect ratio : 16:9
    Frame rate mode : Constant
    Frame rate : 23.976 fps
    Color space : YUV
    Chroma subsampling : 4:2:0
    Bit depth : 8 bits
    Scan type : Progressive
    Title : Carrie 2013 Unrated BDRemux 1080p GORESEWAGE
    Language : English
    Default : Yes
    Forced : No
    Audio #2
    ID : 2
    Format : AC-3
    Format/Info : Audio Coding 3
    Mode extension : CM (complete main)
    Format settings, Endianness : Big
    Codec ID : A_AC3
    Duration : 1h 40mn
    Bit rate mode : Constant
    Bit rate : 384 Kbps
    Channel count : 6 channels
    Channel positions : Front: L C R, Side: L R, LFE
    Sampling rate : 48.0 KHz
    Bit depth : 16 bits
    Compression mode : Lossy
    Stream size : 277 MiB (1%)
    Title : Dub (iTunes Rus) AVO Дольский
    Language : Russian
    Default : Yes
    Forced : No
    Audio #3
    ID : 3
    Format : AC-3
    Format/Info : Audio Coding 3
    Mode extension : CM (complete main)
    Format settings, Endianness : Big
    Codec ID : A_AC3
    Duration : 1h 40mn
    Bit rate mode : Constant
    Bit rate : 224 Kbps
    Channel count : 2 channels
    Channel positions : Front: L R
    Sampling rate : 48.0 KHz
    Bit depth : 16 bits
    Compression mode : Lossy
    Stream size : 162 MiB (1%)
    Title : Dub (Line) VO lord666
    Language : Russian
    Default : No
    Forced : No
    Audio #4
    ID : 4
    Format : DTS
    Format/Info : Digital Theater Systems
    Format profile : MA / Core
    Mode : 16
    Format settings, Endianness : Big
    Codec ID : A_DTS
    Duration : 1h 40mn
    Bit rate mode : Variable
    Bit rate : Unknown / 1 509 Kbps
    Channel count : 6 channels
    Channel positions : Front: L C R, Side: L R, LFE
    Sampling rate : 48.0 KHz
    Bit depth : 24 bits
    Compression mode : Lossless / Lossy
    Title : AVO Дольский
    Language : Russian
    Default : No
    Forced : No
    Audio #5
    ID : 5
    Format : AC-3
    Format/Info : Audio Coding 3
    Mode extension : CM (complete main)
    Format settings, Endianness : Big
    Codec ID : A_AC3
    Duration : 1h 40mn
    Bit rate mode : Constant
    Bit rate : 640 Kbps
    Channel count : 6 channels
    Channel positions : Front: L C R, Side: L R, LFE
    Sampling rate : 48.0 KHz
    Bit depth : 16 bits
    Compression mode : Lossy
    Stream size : 462 MiB (2%)
    Title : VO lord666
    Language : Russian
    Default : No
    Forced : No
    Audio #6
    ID : 6
    Format : DTS
    Format/Info : Digital Theater Systems
    Format profile : MA / Core
    Mode : 16
    Format settings, Endianness : Big
    Codec ID : A_DTS
    Duration : 1h 40mn
    Bit rate mode : Variable
    Bit rate : Unknown / 1 509 Kbps
    Channel count : 6 channels
    Channel positions : Front: L C R, Side: L R, LFE
    Sampling rate : 48.0 KHz
    Bit depth : 24 bits
    Compression mode : Lossless / Lossy
    Title : Original
    Language : English
    Default : No
    Forced : No
    Text #7
    ID : 7
    Format : UTF-8
    Codec ID : S_TEXT/UTF8
    Codec ID/Info : UTF-8 Plain Text
    Title : Forced
    Language : Russian
    Default : Yes
    Forced : No
    Text #8
    ID : 8
    Format : UTF-8
    Codec ID : S_TEXT/UTF8
    Codec ID/Info : UTF-8 Plain Text
    Title : Full Notabenoid
    Language : Russian
    Default : No
    Forced : No
    Text #9
    ID : 9
    Format : UTF-8
    Codec ID : S_TEXT/UTF8
    Codec ID/Info : UTF-8 Plain Text
    Title : Full
    Language : English
    Default : No
    Forced : No
    Text #10
    ID : 10
    Format : UTF-8
    Codec ID : S_TEXT/UTF8
    Codec ID/Info : UTF-8 Plain Text
    Title : Full SDH
    Language : English
    Default : No
    Forced : No
    Menu
    00:00:00.000 : en:00:00:00.000
    00:04:14.546 : en:00:04:14.546
    00:06:37.856 : en:00:06:37.856
    00:10:07.649 : en:00:10:07.649
    00:12:03.681 : en:00:12:03.681
    00:14:46.177 : en:00:14:46.177
    00:18:50.463 : en:00:18:50.463
    00:23:15.060 : en:00:23:15.060
    00:26:51.401 : en:00:26:51.401
    00:30:50.974 : en:00:30:50.974
    00:32:27.863 : en:00:32:27.863
    00:36:18.093 : en:00:36:18.093
    00:38:20.340 : en:00:38:20.340
    00:41:47.755 : en:00:41:47.755
    00:46:22.196 : en:00:46:22.196
    00:51:01.850 : en:00:51:01.850
    00:53:09.853 : en:00:53:09.853
    00:55:47.678 : en:00:55:47.678
    01:00:52.065 : en:01:00:52.065
    01:04:02.338 : en:01:04:02.338
    01:07:03.311 : en:01:07:03.311
    01:09:38.383 : en:01:09:38.383
    01:13:05.381 : en:01:13:05.381
    01:18:25.159 : en:01:18:25.159
    01:22:46.712 : en:01:22:46.712
    01:25:17.863 : en:01:25:17.863
    01:29:25.360 : en:01:29:25.360
    01:33:36.402 : en:01:33:36.402

    Размер скачиваемого торрента: 25.35 GB (27218610989 Bytes)

    Телекинез / Carrie (2013) BDRemux 1080p | Unrated скачать через торрент бесплатно
    загрузка...
    Рейтинг →
     (голосов: 1, оценка 4/5, голосовать можно 1 раз )

    Другие торренты по теме:

  • Телекинез / Carrie (2013) HD 1080p | Трейлер
  • Телекинез / Carrie (2013) CAMRip от INTERCINEMA | L1
  • OST - Телекинез / Carrie (2013) MP3
  • Телекинез / Carrie (2013) CAMRip скачать через торрент бесплатно
  • Телекинез / Carrie (2013) BDRip 720p | Звук с CAMRip скачать через торрент бесплатно
  • Телекинез / Carrie (2013) HDRip | Звук с CAMRip скачать через торрент бесплатно
  • Телекинез / Carrie (2013) HDRip | L1
  • Телекинез / Carrie (2013) BDRip 1080p | Чистый звук скачать через торрент бесплатно


    • Комментарии (0):

      Информация

      Информация

        Посетители, находящиеся в группе Гости, не могут оставлять комментарии в данной новости.

        ↓ Меню



        ↓ Опрос

        А Вы добавили сайт в закладки?
        Да
        Не


        Top 10 за месяц (Фильмы)