.
Авторизация | Регистрация
Хочешь лучшие торренты? Добавь свой email!
Добавить
» » Праздник для убийцы / Killer Holiday (2013) WEB-DL 720p от CINEMANIA | L2 скачать торрент бесплатно




    Праздник для убийцы / Killer Holiday (2013) WEB-DL 720p от CINEMANIA | L2 скачать торрент бесплатно

    Опубликовал: Админ | Дата: 27-02-2015, 11:10 | Просмотров: 271



    Детально о кино
    Русское название: Праздник для убийцы
    Русское название в мировом прокате: Killer Holiday
    Создали в: 2013
    Категория жанра: ужасы, триллер
    Главный режиссер: Марти Томас
    Актеры: Майкл Копон, Рэйчел Лара, Джулия Бет Штер, Алекс Мэндел, Рэйчел Уиксом, МэттКэллоуэй, Гэбриел Оливера, Рич Хоаг

    Сюжет фильма:
    Студентка-отличница Камми вместе с друзьями решает на весенних каникулах совершить автомобильное путешествие по калифорнийской пустыне. Несмотря на дурные предчувствия Камми, компания движется по старому шоссе 66 всё дальше вглубь пустошей. После встречи с незнакомцем на дороге, друзья вскоре оказываются в заброшенном парке развлечений, и лишь здесь узнают, что человек, который их заманил сюда – знаменитый серийный убийца по кличке Паук...



    Снималось в: США
    Время просмотра: 01:29:15
    Тип перевода: Любительское (двухголосое) DeadSno den904
    перевод на русский язык Antonio

    Файл
    Тип видео: AVI (XviD)
    Качество фильма: WEB-DL 720p UNiQUE
    Информация о видео: 3898 kb/s, 1280x536
    Информация о звуке: Russian / English: AC3, 384 kb/s (6 ch)
    Размер скачиваемого торрента: 2.92 GB
    Скачать: Сэмпл

    Релиз группы:



    NFO
    Общее
    Killer.Holiday.2013.WEB-DL.720p.CINEMANIA.avi
    Формат : AVI
    Формат/Информация : Audio Video Interleave
    Профиль формата : OpenDML
    Размер файла : 2,92 Гбайт
    Продолжительность : 1 ч. 29 м.
    Общий поток : 4681 Кбит/сек
    Программа кодирования : VirtualDubMod 1.5.10.2 (build 2542/release)
    Библиотека кодирования : VirtualDubMod build 2542/release

    Видео
    Идентификатор : 0
    Формат : MPEG-4 Visual
    Профиль формата : Advanced Simple@L5
    Параметр BVOP формата : 2
    Параметр QPel формата : Нет
    Параметр GMC формата : Без точки перехода
    Параметр матрицы формата : Default (H.263)
    Режим смешивания : Сжатый битовый поток
    Идентификатор кодека : XVID
    Идентификатор кодека/Подсказка : XviD
    Продолжительность : 1 ч. 29 м.
    Битрейт : 3898 Кбит/сек
    Ширина : 1280 пикселей
    Высота : 536 пикселей
    Соотношение сторон : 2,40:1
    Частота кадров : 23,976 кадра/сек
    Цветовое пространство : YUV
    Субдискретизация насыщенности : 4:2:0
    Битовая глубина : 8 бит
    Тип развёртки : Прогрессивная
    Метод сжатия : С потерями
    Бит/(Пиксели*Кадры) : 0.237
    Размер потока : 2,43 Гбайт (83%)
    Библиотека кодирования : XviD 64

    Аудио #1
    Идентификатор : 1
    Формат : AC-3
    Формат/Информация : Audio Coding 3
    Расширение режима : CM (complete main)
    Параметр Endianness формата : Big
    Идентификатор кодека : 2000
    Продолжительность : 1 ч. 29 м.
    Вид битрейта : Постоянный
    Битрейт : 384 Кбит/сек
    Каналы : 6 каналов
    Расположение каналов : Front: L C R, Side: L R, LFE
    Частота : 48,0 КГц
    Битовая глубина : 16 бит
    Метод сжатия : С потерями
    Размер потока : 245 Мбайт (8%)
    Выравнивание : Разделение по промежуткам
    Продолжительность промежутка : 42 мс. (1,00 видеокадр)
    Время предзагрузки промежутка : 500 мс.

    Аудио #2
    Идентификатор : 2
    Формат : AC-3
    Формат/Информация : Audio Coding 3
    Расширение режима : CM (complete main)
    Параметр Endianness формата : Big
    Идентификатор кодека : 2000
    Продолжительность : 1 ч. 29 м.
    Вид битрейта : Постоянный
    Битрейт : 384 Кбит/сек
    Каналы : 6 каналов
    Расположение каналов : Front: L C R, Side: L R, LFE
    Частота : 48,0 КГц
    Битовая глубина : 16 бит
    Метод сжатия : С потерями
    Размер потока : 245 Мбайт (8%)
    Выравнивание : Разделение по промежуткам
    Продолжительность промежутка : 42 мс. (1,00 видеокадр)
    Время предзагрузки промежутка : 500 мс.


    Залил: DGEKIGAN
    Размер скачиваемого торрента: 2.92 GB (3133143040 Bytes)

    Праздник для убийцы / Killer Holiday (2013) WEB-DL 720p от CINEMANIA | L2 торрент скачать бесплатно
    загрузка...
    Рейтинг →
     (голосов: 1, оценка 4/5, голосовать можно 1 раз )

    Другие торренты по теме:

  • Праздник для убийцы / Killer Holiday (2013) DVDRip-AVC | L2 скачать через торрент бесплатно


    • Комментарии (0):

      Информация

      Информация

        Посетители, находящиеся в группе Гости, не могут оставлять комментарии в данной новости.

        ↓ Меню



        ↓ Опрос

        А Вы добавили сайт в закладки?
        Да
        Не


        Top 10 за месяц (Фильмы)