.
Авторизация | Регистрация
Хочешь лучшие торренты? Добавь свой email!
Добавить
» » Внезапная смерть / Sudden Death (1995) BDRip (720p) | P, P2, A скачать торрент бесплатно




    Внезапная смерть / Sudden Death (1995) BDRip (720p) | P, P2, A скачать торрент бесплатно

    Опубликовал: Админ | Дата: 27-02-2015, 11:10 | Просмотров: 308



    Детально о кино
    Русское название: Внезапная смерть
    Русское название в мировом прокате: Sudden Death
    Создали в: 1995
    Категория жанра: боевик, триллер, драма
    Главный режиссер: Питер Хайамс
    Актеры: Жан-Клод Ван Дамм, Пауэрс Бут, Рэймонд Дж. Бэрри, Уиттни Райт, Росс Мэлинджер, Дориан Хэрвуд, Кейт МакНил, Майкл Гэстон, Одра Линдли, Брайан Дилейт, Стив Аронсон, Майкл Р. Обеле, Карен Элиз Болдуин, Дженнифер Д. Баузер, Пэт Бриссон, Гленда Морган Браун, Джофри С. Браун, Уильям Камерон, Бернард Канепари, Джэй Кофилд, Алан Клемент, Билл Клемент, Билл Дэлзелл, Гилберт Б. Комбс, Джэк Эрди, Эд Эванко, Дэвид Флик, Гленн Алан Гарднер, Джон Холл, Джефф Хабберстэд

    Сюжет фильма:
    Во время проведения решающего хоккейного матча кубка Стенли гигантский стадион оказывается в заложниках у группы террористов, возглавляемых бывшим сотрудником службы безопасности. В случае отказа или задержки выполнения их требований (перевод значительной суммы на различные банковские счета) преступники грозятся взорвать здание. На их беду, среди персонала спорткомплекса оказывается мужественный пожарный, а среди зрителей подвергающихся смертельной опасности, — его дети.



    Снималось в: США
    Киностудия: Imperial Entertainment, Signature Entertainment, Universal Pictures
    Время просмотра: 01:49:58
    Перевод текста: Профессиональный (многоголосый закадровый), профессиональный (двухголосый закадровый), авторский (одноголосый закадровый)

    Файл
    Кодек для видео: h.264
    Качество фильма: BDRip (720p)
    Информация о видео: 7000 Кбит/с, 1280х544, 23.976 кадр/с

    Информация о звуке:
    • №1: Русский (АС3, 6 ch, 384 Кбит/с) / Авторский одноголосый (Юрий Живов)
    • №2: Русский (АС3, 2 ch, 192 Кбит/с) / Профессиональный многоголосый (Премьер Видео)
    • №3: Русский (АС3, 6 ch, 384 Кбит/с) / Профессиональный двухголосый
    • №4: Русский (АС3, 2 ch, 192 Кбит/с) / Профессиональный двухголосый (НТВ)
    • №5: Русский (АС3, 2 ch, 192 Кбит/с) / Авторский одноголосый (Андрей Гаврилов)
    • №6: Русский (АС3, 2 ch, 192 Кбит/с) / Авторский одноголосый (Сергей Визгунов)
    • №7: Русский (АС3, 2 ch, 192 Кбит/с) / Профессиональный многоголосый
    • №8: Русский (АС3, 2 ch, 192 Кбит/с) / Профессиональный многоголосый (СТС)
    • №9: Английский (DTS, 6 ch, 1536 Кбит/с)

    Субтитры: Русские, английские

    Релиз

    Рип от WiKi
    Спасибо за раздачу KpucTo161 HDTracker
    Добавлены субтитры и главы
    MediaInfo

    Полное имя : F:Sudden.Death.1995.x264.BDRip.720p.0ptimus.mkv
    Формат : Matroska
    Версия формата : Version 2
    Размер файла : 8,01 Гбайт
    Продолжительность : 1 ч. 49 м.
    Общий поток : 10,4 Мбит/сек
    Название фильма : Внезапная смерть | Sudden Death 1995 -=BDRip (720p) by 0ptimus=-
    Дата кодирования : UTC 2014-01-27 12:06:20
    Программа кодирования : mkvmerge v6.6.0 (;The Edge Of The In Between;) built on Dec 1 2013 17:55:00
    Библиотека кодирования : libebml v1.3.0 libmatroska v1.4.1

    Видео
    Идентификатор : 1
    Формат : AVC
    Формат/Информация : Advanced Video Codec
    Профиль формата : High@L4.1
    Параметр CABAC формата : Да
    Параметр ReFrames формата : 12 кадров
    Идентификатор кодека : V_MPEG4/ISO/AVC
    Продолжительность : 1 ч. 49 м.
    Битрейт : 7000 Кбит/сек
    Ширина : 1280 пикселей
    Высота : 544 пикселя
    Соотношение сторон : 2,35:1
    Режим частоты кадров : Постоянный
    Частота кадров : 23,976 кадра/сек
    Цветовое пространство : YUV
    Субдискретизация насыщенности : 4:2:0
    Битовая глубина : 8 бит
    Тип развёртки : Прогрессивная
    Бит/(Пиксели*Кадры) : 0.419
    Размер потока : 5,22 Гбайт (65%)
    Заголовок : WiKi
    Библиотека кодирования : x264 core 130 r2273 b3065e6
    Настройки программы : cabac=1 / ref=12 / deblock=1:-3:-3 / analyse=0x3:0x113 / me=umh / subme=11 / psy=1 / psy_rd=0.70:0.05 / mixed_ref=1 / me_range=32 / chroma_me=1 / trellis=2 / 8x8dct=1 / cqm=0 / deadzone=21,11 / fast_pskip=0 / chroma_qp_offset=-5 / threads=12 / lookahead_threads=3 / sliced_threads=0 / nr=0 / decimate=0 / interlaced=0 / bluray_compat=0 / constrained_intra=0 / bframes=10 / b_pyramid=2 / b_adapt=2 / b_bias=0 / direct=3 / weightb=1 / open_gop=0 / weightp=2 / keyint=250 / keyint_min=23 / scenecut=40 / intra_refresh=0 / rc_lookahead=90 / rc=2pass / mbtree=1 / bitrate=7000 / ratetol=1.0 / qcomp=0.60 / qpmin=0 / qpmax=69 / qpstep=4 / cplxblur=20.0 / qblur=0.5 / ip_ratio=1.40 / aq=1:0.95
    Язык : English
    Default : Да
    Forced : Да

    Аудио #1
    Идентификатор : 2
    Формат : AC-3
    Формат/Информация : Audio Coding 3
    Расширение режима : CM (complete main)
    Параметр Endianness формата : Big
    Идентификатор кодека : A_AC3
    Продолжительность : 1 ч. 49 м.
    Вид битрейта : Постоянный
    Битрейт : 192 Кбит/сек
    Каналы : 2 канала
    Расположение каналов : Front: L R
    Частота : 48,0 КГц
    Битовая глубина : 16 бит
    Метод сжатия : С потерями
    Размер потока : 151 Мбайт (2%)
    Заголовок : Многоголосый закадровый Премьер-видео AC3 2.0 @ 192 kbps
    Язык : Russian
    Default : Да
    Forced : Да

    Аудио #2
    Идентификатор : 3
    Формат : AC-3
    Формат/Информация : Audio Coding 3
    Расширение режима : CM (complete main)
    Параметр Endianness формата : Big
    Идентификатор кодека : A_AC3
    Продолжительность : 1 ч. 49 м.
    Вид битрейта : Постоянный
    Битрейт : 192 Кбит/сек
    Каналы : 2 канала
    Расположение каналов : Front: L R
    Частота : 48,0 КГц
    Битовая глубина : 16 бит
    Метод сжатия : С потерями
    Размер потока : 151 Мбайт (2%)
    Заголовок : Многоголосый закадровый AC3 2.0 @ 192 kbps
    Язык : Russian
    Default : Нет
    Forced : Нет

    Аудио #3
    Идентификатор : 4
    Формат : AC-3
    Формат/Информация : Audio Coding 3
    Расширение режима : CM (complete main)
    Параметр Endianness формата : Big
    Идентификатор кодека : A_AC3
    Продолжительность : 1 ч. 49 м.
    Вид битрейта : Постоянный
    Битрейт : 192 Кбит/сек
    Каналы : 2 канала
    Расположение каналов : Front: L R
    Частота : 48,0 КГц
    Битовая глубина : 16 бит
    Метод сжатия : С потерями
    Размер потока : 151 Мбайт (2%)
    Заголовок : Многоголосый закадровый СТС AC3 2.0 @ 192 kbps
    Язык : Russian
    Default : Нет
    Forced : Нет

    Аудио #4
    Идентификатор : 5
    Формат : AC-3
    Формат/Информация : Audio Coding 3
    Расширение режима : CM (complete main)
    Параметр Endianness формата : Big
    Идентификатор кодека : A_AC3
    Продолжительность : 1 ч. 49 м.
    Вид битрейта : Постоянный
    Битрейт : 384 Кбит/сек
    Каналы : 6 каналов
    Расположение каналов : Front: L C R, Side: L R, LFE
    Частота : 48,0 КГц
    Битовая глубина : 16 бит
    Метод сжатия : С потерями
    Размер потока : 302 Мбайт (4%)
    Заголовок : Двухголосый закадровый AC3 5.1 @ 384 kbps
    Язык : Russian
    Default : Нет
    Forced : Нет

    Аудио #5
    Идентификатор : 6
    Формат : AC-3
    Формат/Информация : Audio Coding 3
    Расширение режима : CM (complete main)
    Параметр Endianness формата : Big
    Идентификатор кодека : A_AC3
    Продолжительность : 1 ч. 49 м.
    Вид битрейта : Постоянный
    Битрейт : 192 Кбит/сек
    Каналы : 2 канала
    Расположение каналов : Front: L R
    Частота : 48,0 КГц
    Битовая глубина : 16 бит
    Метод сжатия : С потерями
    Размер потока : 151 Мбайт (2%)
    Заголовок : Двухголосый закадровый НТВ AC3 2.0 @ 192 kbps
    Язык : Russian
    Default : Нет
    Forced : Нет

    Аудио #6
    Идентификатор : 7
    Формат : AC-3
    Формат/Информация : Audio Coding 3
    Расширение режима : CM (complete main)
    Параметр Endianness формата : Big
    Идентификатор кодека : A_AC3
    Продолжительность : 1 ч. 49 м.
    Вид битрейта : Постоянный
    Битрейт : 192 Кбит/сек
    Каналы : 2 канала
    Расположение каналов : Front: L R
    Частота : 48,0 КГц
    Битовая глубина : 16 бит
    Метод сжатия : С потерями
    Размер потока : 151 Мбайт (2%)
    Заголовок : Авторский Андрей Гаврилов AC3 2.0 @ 192 kbps
    Язык : Russian
    Default : Нет
    Forced : Нет

    Аудио #7
    Идентификатор : 8
    Формат : AC-3
    Формат/Информация : Audio Coding 3
    Расширение режима : CM (complete main)
    Параметр Endianness формата : Big
    Идентификатор кодека : A_AC3
    Продолжительность : 1 ч. 49 м.
    Вид битрейта : Постоянный
    Битрейт : 384 Кбит/сек
    Каналы : 6 каналов
    Расположение каналов : Front: L C R, Side: L R, LFE
    Частота : 48,0 КГц
    Битовая глубина : 16 бит
    Метод сжатия : С потерями
    Размер потока : 302 Мбайт (4%)
    Заголовок : Авторский Юрий Живов AC3 5.1 @ 384 kbps
    Язык : Russian
    Default : Нет
    Forced : Нет

    Аудио #8
    Идентификатор : 9
    Формат : AC-3
    Формат/Информация : Audio Coding 3
    Расширение режима : CM (complete main)
    Параметр Endianness формата : Big
    Идентификатор кодека : A_AC3
    Продолжительность : 1 ч. 49 м.
    Вид битрейта : Постоянный
    Битрейт : 192 Кбит/сек
    Каналы : 2 канала
    Расположение каналов : Front: L R
    Частота : 48,0 КГц
    Битовая глубина : 16 бит
    Метод сжатия : С потерями
    Размер потока : 151 Мбайт (2%)
    Заголовок : Авторский Сергей Визгунов AC3 2.0 @ 192 kbps
    Язык : Russian
    Default : Нет
    Forced : Нет

    Аудио #9
    Идентификатор : 10
    Формат : DTS
    Формат/Информация : Digital Theater Systems
    Режим : 16
    Параметр Endianness формата : Big
    Идентификатор кодека : A_DTS
    Продолжительность : 1 ч. 49 м.
    Вид битрейта : Постоянный
    Битрейт : 1509 Кбит/сек
    Каналы : 6 каналов
    Расположение каналов : Front: L C R, Side: L R, LFE
    Частота : 48,0 КГц
    Битовая глубина : 24 бит
    Метод сжатия : С потерями
    Размер потока : 1,16 Гбайт (14%)
    Заголовок : DTS 5.1 @ 1536 kbps
    Язык : English
    Default : Нет
    Forced : Нет

    Текст #1
    Идентификатор : 11
    Формат : UTF-8
    Идентификатор кодека : S_TEXT/UTF8
    Идентификатор кодека/Информация : UTF-8 Plain Text
    Язык : Russian
    Default : Нет
    Forced : Нет

    Текст #2
    Идентификатор : 12
    Формат : UTF-8
    Идентификатор кодека : S_TEXT/UTF8
    Идентификатор кодека/Информация : UTF-8 Plain Text
    Язык : English
    Default : Нет
    Forced : Нет

    Меню
    00:00:00.000 : en:Main Titles; Under Fire
    00:03:25.830 : en:Game Day
    00:07:24.110 : en:The Terrorists
    00:20:31.605 : en:The Hostile Takeover
    00:36:52.543 : en:The Killer Penguin
    00:42:21.872 : en:A Gunman on the Griddle
    00:44:24.828 : en:One Big Bomb
    00:52:46.371 : en:Death on Ice
    00:58:50.902 : en:The Message on the Billboard
    01:00:46.100 : en:McCord Makes His Point
    01:19:40.817 : en:The New Goalie
    01:30:19.497 : en:The Top of the World
    01:33:24.265 : en:Death on the Dome
    01:36:07.970 : en:The Sky-Cam Assault
    01:41:47.810 : en:The Face-Off
    01:45:58.018 : en:End Titles
    Скриншоты для ознакомления



    Размер скачиваемого торрента: 8.01 GB (8601926755 Bytes)

    Внезапная смерть / Sudden Death (1995) BDRip (720p) | P, P2, A торрент скачать бесплатно
    загрузка...
    Рейтинг →
     (голосов: 1, оценка 5/5, голосовать можно 1 раз )

    Другие торренты по теме:

  • Внезапная смерть / Sudden Death (1995) HDRip от Leon-masl
  • Внезапная смерть / Sudden Death (1995) BDRip-AVC от 0ptimus | P, P2, A
  • Внезапная смерть / Sudden Death (1995) BDRip от HQCLUB скачать через торрент бесплатно
  • Внезапная смерть / Sudden Death (1995) HDRip от Scarabey | P скачать через торрент бесплатно
  • Внезапная смерть / Sudden Death (1995) BDRip от 0ptimus | P, P2, A
  • Внезапная смерть / Sudden Death (1995) BDRip 1080p | P, P2, A


    • Комментарии (0):

      Информация

      Информация

        Посетители, находящиеся в группе Гости, не могут оставлять комментарии в данной новости.

        ↓ Меню



        ↓ Опрос

        А Вы добавили сайт в закладки?
        Да
        Не


        Top 10 за месяц (Фильмы)