.
Авторизация | Регистрация
Хочешь лучшие торренты? Добавь свой email!
Добавить
» » Зов Шанхая / Shanghai Calling (2012) WEB-DLRip скачать через торрент бесплатно




    Зов Шанхая / Shanghai Calling (2012) WEB-DLRip скачать через торрент бесплатно

    Опубликовал: Админ | Дата: 27-02-2015, 11:10 | Просмотров: 329



    Детально о кино
    Русское название: Зов Шанхая
    Русское название в мировом прокате: Shanghai Calling
    Создали в: 2012
    Категория жанра: Драма, мелодрама, комедия
    Главный режиссер: Дэниэл Хсиа
    Актеры: Дэниэл Хенни, Гэн Лэ, Жу Жу, Элиза Куп, Билл Пэкстон, Алан Рак, Джим Беннетт, Каи Лу, Лонг Шен Дао, Кристин Франсуа, Шон Галлахер, Ма Гао, Цянь Цзо Гуо, Арран Хоукинс, Джесси Хуанг, Ева Джин, Кристофер Лихер, Джон Пол Лопез, Билл Маркус, Чарльз Майер, Женг Цянь, Джеймс Райс, Йинг Тэнг, Кара Ванг, Йонг Ванг, Юн Ванг, Янян Ву, Менг Ю, Шэйн П. Чжан, Фрэнк Жу, Шимао Жу

    Сюжет фильма:
    Романтическая комедия про американца, который из-за работы вынужден отправиться на незнакомую землю. Когда амбициозного адвоката Сэма переводят из Нью-Йорка в Шанхай, он сразу же попадает в неприятности, которые грозят крахом его карьере. Но при помощи красавицы-специалиста по переселению, общительного иностранного бизнесмена, умного репортера и смышленой ассистентки, Сэм сможет не только сохранить свою работу и найти настоящую любовь, но и откроет для себя много чудес, которые готов предложить ему Шанхай.




    Снималось в: США, Китай
    Киностудия: Americatown, Beijing Film Production Corporation of China Film Co., Movie Channel Program Center, Relativity Investment Capital
    Время просмотра: 01:40:54
    Перевод текста: Дублированный - Sezmar Studio
    Файл
    Кодек для видео: XviD
    Качество фильма: WEB-DLRip (Исх. WEB-DL 720p)
    Информация о видео: 688x288 (2.39:1), 23.976 fps, XviD build 50 ~896 kbps avg, 0.19 bit/pixel
    Информация о звуке: 48 kHz, MPEG Layer 3, 2 ch, ~128.00 kbps avg
    Субтитры: нет

    Семпл

    MediaInfo

    Общее
    Полное имя : S:ФильмыЗов Шанхая. 2012. WEB-DLRip.avi
    Формат : AVI
    Формат/Информация : Audio Video Interleave
    Размер файла : 746 Мбайт
    Продолжительность : 1 ч. 40 м.
    Общий поток : 1033 Кбит/сек
    Программа кодирования : VirtualDubMod 1.5.10.3 | www.virtualdub-fr.org || (build 2550/release)
    Библиотека кодирования : VirtualDubMod build 2550/release

    Видео
    Идентификатор : 0
    Формат : MPEG-4 Visual
    Профиль формата : Advanced Simple@L5
    Параметр BVOP формата : 2
    Параметр QPel формата : Нет
    Параметр GMC формата : Без точки перехода
    Параметр матрицы формата : Выборочная
    Идентификатор кодека : XVID
    Идентификатор кодека/Подсказка : XviD
    Продолжительность : 1 ч. 40 м.
    Битрейт : 896 Кбит/сек
    Ширина : 688 пикс.
    Высота : 288 пикс.
    Соотношение сторон : 2,40:1
    Частота кадров : 23,976 кадр/сек
    Цветовое пространство : YUV
    Подвыборка цветности : 4:2:0
    Битовая глубина : 8 бит
    Тип развёртки : Прогрессивная
    Метод сжатия : С потерями
    Бит/(Пиксели*Кадры) : 0.189
    Размер потока : 647 Мбайт (87%)
    Библиотека кодирования : XviD 1.2.1 (UTC 2008-12-04)

    Аудио
    Идентификатор : 1
    Формат : MPEG Audio
    Версия формата : Version 1
    Профиль формата : Layer 3
    Идентификатор кодека : 55
    Идентификатор кодека/Подсказка : MP3
    Продолжительность : 1 ч. 40 м.
    Вид битрейта : Постоянный
    Битрейт : 128 Кбит/сек
    Каналы : 2 канала
    Частота : 48,0 КГц
    Метод сжатия : С потерями
    Размер потока : 92,4 Мбайт (12%)
    Выравнивание : Соединение по промежуткам
    Продолжительность промежутка : 42 мс. (1,00 видеокадр)
    Время предзагрузки промежутка : 504 ms
    Библиотека кодирования : LAME3.99r
    Залил: AleksSin
    Размер скачиваемого торрента: 745.75 MB (781973504 Bytes)


    Зов Шанхая / Shanghai Calling (2012) WEB-DLRip скачать через торрент бесплатно
    загрузка...
    Рейтинг →
     (голосов: 1, оценка 3/5, голосовать можно 1 раз )

    Другие торренты по теме:

  • Зов Шанхая / Shanghai Calling (2012) WEB-DL 720p | Sub
  • Зов Шанхая / Shanghai Calling (2012) WEB-DLRip | D
  • Зов Шанхая / Shanghai Calling (2012) WEB-DL 720p от Sezmar Studio | D


    • Комментарии (0):

      Информация

      Информация

        Посетители, находящиеся в группе Гости, не могут оставлять комментарии в данной новости.

        ↓ Меню



        ↓ Опрос

        А Вы добавили сайт в закладки?
        Да
        Не


        Top 10 за месяц (Фильмы)