.
Авторизация | Регистрация
Хочешь лучшие торренты? Добавь свой email!
Добавить
» » Анжелика и король / Anglique et le roi (1966) BDRip by msltel | D, P скачать торрент бесплатно




    Анжелика и король / Anglique et le roi (1966) BDRip by msltel | D, P скачать торрент бесплатно

    Опубликовал: Админ | Дата: 27-02-2015, 11:10 | Просмотров: 332



    Русское название: Анжелика и король
    Русское название в мировом прокате: Ang?lique et le roi
    Создали в: 1966
    Категория жанра: Мелодрама, приключения
    Снималось в: Франция, Италия, Германия (ФРГ), Films Borderie, Fono Roma, Francos Films, Gloria-Film GmbH, Liber Film
    Главный режиссер: Бернар Бордери
    Актеры: Мишель Мерсье, Робер Оссейн, Жан Рошфор, Этторе Манни, Бруно Дитрих, Кристиан Роде, Паскуаль Мартино, Сами Фре, Жак Тожа, Эстелла Блен, Фред Уильямс, Жан Паредес, Рене Лефевр, Мишель Галабрю, Филипп Лемэр, Энн Смирнер, Кароль Ле Бек, Мишель Томасс, Робер Фавар, Роберто, Клод Жиро, Клер Атана, Жоэлль Бернар, Валери Буажель, Жан Деграв, Жан Голд, Жак Иллинг, Вивиан Лэндфорд, Доминик Зарди

    Сюжет фильма: Король Людовик XIV даёт Анжелике задание уговорить персидского посла подписать договор с Францией. Решив, что цель оправдывает средства, она использует всё своё очарование. Посол соглашается на сделку, но требует прекрасную Анжелику... Экранизация многотомного романа Анн и Сержа Голон Анжелика.

    Качество фильма: BDRip
    Размер скачиваемого торрента: 2.8 ГБ
    Время просмотра: 01:44:32

    Информация о видео: XviD, 1901 Kбит/с, 720x304
    Информация о звуке 1: русский, 48 kHz, AC3, 2 ch, 384 kbps avg, Дублированный, DVD
    Информация о звуке 2: русский, 48 kHz, AC3, 2 ch, 384 kbps avg, Профессиональный многоголосый, НТВ

    Внешние файлы
    Информация о звуке: русский, 48 kHz, AC3, 2 ch, 384 kbps avg, Дублированный, с добавлением многоголоски HTB
    Информация о звуке: украинский, 48 kHz, AC3, 2 ch, 384 kbps avg, Профессиональный двухголосый, 1 1
    Информация о звуке: французский, 48 kHz, AC3, 2 ch, 384 kbps avg, Оригинал
    Субтитры: русские

    Исходник: andarmo (Кинозал)

    Сравнение с исходником



    MediaInfo
    Общее
    Полное имя : E:VideoAngelika.3.1966.XviD.BDRipAngelika.3.1966.DUB HTB.rus.ac3
    Формат : AC-3
    Формат/Информация : Audio Coding 3
    Размер файла : 287 Мбайт
    Продолжительность : 1 ч. 44 м.
    Режим общего битрейта : Постоянный
    Общий поток : 384 Кбит/сек

    Аудио
    Формат : AC-3
    Формат/Информация : Audio Coding 3
    Расширение режима : CM (complete main)
    Параметр Endianness формата : Big
    Продолжительность : 1 ч. 44 м.
    Вид битрейта : Постоянный
    Битрейт : 384 Кбит/сек
    Каналы : 2 канала
    Расположение каналов : Front: L R
    Частота : 48,0 КГц
    Битовая глубина : 16 бит
    Метод сжатия : С потерями
    Размер потока : 287 Мбайт (100%)

    Общее
    Полное имя : E:VideoAngelika.3.1966.XviD.BDRipAngelika.3.1966.DVO.ukr.1 1.ac3
    Формат : AC-3
    Формат/Информация : Audio Coding 3
    Размер файла : 287 Мбайт
    Продолжительность : 1 ч. 44 м.
    Режим общего битрейта : Постоянный
    Общий поток : 384 Кбит/сек

    Аудио
    Формат : AC-3
    Формат/Информация : Audio Coding 3
    Расширение режима : CM (complete main)
    Параметр Endianness формата : Big
    Продолжительность : 1 ч. 44 м.
    Вид битрейта : Постоянный
    Битрейт : 384 Кбит/сек
    Каналы : 2 канала
    Расположение каналов : Front: L R
    Частота : 48,0 КГц
    Битовая глубина : 16 бит
    Метод сжатия : С потерями
    Размер потока : 287 Мбайт (100%)

    Общее
    Полное имя : E:VideoAngelika.3.1966.XviD.BDRipAngelika.3.1966.Original.fre.ac3
    Формат : AC-3
    Формат/Информация : Audio Coding 3
    Размер файла : 287 Мбайт
    Продолжительность : 1 ч. 44 м.
    Режим общего битрейта : Постоянный
    Общий поток : 384 Кбит/сек

    Аудио
    Формат : AC-3
    Формат/Информация : Audio Coding 3
    Расширение режима : CM (complete main)
    Параметр Endianness формата : Big
    Продолжительность : 1 ч. 44 м.
    Вид битрейта : Постоянный
    Битрейт : 384 Кбит/сек
    Каналы : 2 канала
    Расположение каналов : Front: L R
    Частота : 48,0 КГц
    Битовая глубина : 16 бит
    Метод сжатия : С потерями
    Размер потока : 287 Мбайт (100%)

    Общее
    Полное имя : E:VideoAngelika.3.1966.XviD.BDRipAngelika.3.1966.rus.srt
    Формат : SubRip
    Размер файла : 92,1 Кбайт

    Текст
    Формат : SubRip
    Метод сжатия : Без потерь

    Общее
    Полное имя : E:VideoAngelika.3.1966.XviD.BDRipAngelika.3.1966.XviD.BDRip.avi
    Формат : AVI
    Формат/Информация : Audio Video Interleave
    Размер файла : 1,96 Гбайт
    Продолжительность : 1 ч. 44 м.
    Общий поток : 2683 Кбит/сек
    Программа кодирования : VirtualDubMod 1.5.10.2 (build 2540/release)
    Библиотека кодирования : VirtualDubMod build 2540/release

    Видео
    Идентификатор : 0
    Формат : MPEG-4 Visual
    Профиль формата : Advanced Simple@L5
    Параметр BVOP формата : 1
    Параметр QPel формата : Нет
    Параметр GMC формата : Без точки перехода
    Параметр матрицы формата : Default (H.263)
    Режим смешивания : Сжатый битовый поток
    Идентификатор кодека : XVID
    Идентификатор кодека/Подсказка : XviD
    Продолжительность : 1 ч. 44 м.
    Битрейт : 1901 Кбит/сек
    Ширина : 720 пикселей
    Высота : 304 пикселя
    Соотношение сторон : 2,35:1
    Частота кадров : 24,000 кадра/сек
    Цветовое пространство : YUV
    Субдискретизация насыщенности : 4:2:0
    Битовая глубина : 8 бит
    Тип развёртки : Прогрессивная
    Метод сжатия : С потерями
    Бит/(Пиксели*Кадры) : 0.362
    Размер потока : 1,39 Гбайт (71%)
    Библиотека кодирования : XviD 1.2.1 (UTC 2008-12-04)

    Аудио #1
    Идентификатор : 1
    Формат : AC-3
    Формат/Информация : Audio Coding 3
    Расширение режима : CM (complete main)
    Параметр Endianness формата : Big
    Идентификатор кодека : 2000
    Продолжительность : 1 ч. 44 м.
    Вид битрейта : Постоянный
    Битрейт : 384 Кбит/сек
    Каналы : 2 канала
    Расположение каналов : Front: L R
    Частота : 48,0 КГц
    Битовая глубина : 16 бит
    Метод сжатия : С потерями
    Размер потока : 287 Мбайт (14%)
    Выравнивание : Разделение по промежуткам
    Продолжительность промежутка : 42 мс. (1,00 видеокадр)
    Время предзагрузки промежутка : 500 мс.

    Аудио #2
    Идентификатор : 2
    Формат : AC-3
    Формат/Информация : Audio Coding 3
    Расширение режима : CM (complete main)
    Параметр Endianness формата : Big
    Идентификатор кодека : 2000
    Продолжительность : 1 ч. 44 м.
    Вид битрейта : Постоянный
    Битрейт : 384 Кбит/сек
    Каналы : 2 канала
    Расположение каналов : Front: L R
    Частота : 48,0 КГц
    Битовая глубина : 16 бит
    Метод сжатия : С потерями
    Размер потока : 287 Мбайт (14%)
    Выравнивание : Разделение по промежуткам
    Продолжительность промежутка : 42 мс. (1,00 видеокадр)
    Время предзагрузки промежутка : 500 мс.
    Скриншоты для ознакомления



    Залил: msltel
    Размер скачиваемого торрента: 2.80 GB (3006825530 Bytes)

    Анжелика и король / Anglique et le roi (1966) BDRip by msltel | D, P торрент скачать бесплатно
    загрузка...
    Рейтинг →
     (голосов: 1, оценка 5/5, голосовать можно 1 раз )

    Другие торренты по теме:

  • Анжелика и король / Angelique et le roy (1966) HDTV 1080i от ClubTorrent | D скачать через торрент бесплатно
  • Анжелика и султан / Anglique et le sultan (1968) HDTV 1080i от ClubTorrent | D скачать через торрент бесплатно
  • Анжелика и Султан / Angelique et le Sultan (1968) HDTVRip от Leon-masl
  • Анжелика и король / Anglique et le roi (1966) BDRip 720p by msltel | D, P скачать через торрент бесплатно
  • Анжелика и султан / Anglique et le sultan (1968) BDRip by msltel | D, P
  • Анжелика и король / Anglique et le roi (1966) BDRip 1080p by msltel | D, P
  • Анжелика и султан / Anglique et le sultan (1968) BDRip 720p by msltel | D, P скачать через торрент бесплатно
  • Анжелика и султан / Anglique et le sultan (1968) BDRip 1080p by msltel | D, P


    • Комментарии (0):

      Информация

      Информация

        Посетители, находящиеся в группе Гости, не могут оставлять комментарии в данной новости.

        ↓ Меню



        ↓ Опрос

        А Вы добавили сайт в закладки?
        Да
        Не


        Top 10 за месяц (Фильмы)