.
Авторизация | Регистрация
Хочешь лучшие торренты? Добавь свой email!
Добавить
» » Чайна ОБрайен 1, 2 / China OBrien 1, 2 (1989-1990) DVD9 скачать торрент бесплатно




    Чайна ОБрайен 1, 2 / China OBrien 1, 2 (1989-1990) DVD9 скачать торрент бесплатно

    Опубликовал: Админ | Дата: 27-02-2015, 11:10 | Просмотров: 370



    Детально о кино
    Русское название: Чайна О;Брайен 1, 2
    Русское название в мировом прокате: China O;Brien 1, 2
    Создали в: 1989-1990
    Категория жанра: Боевик
    Главный режиссер: Роберт Клауз
    Актеры: Синтия Ротрок, Ричард Нортон, Кит Кук, Даг Райт, Найджел, Артуро Ривера, Скотт МакМиллан, Патрик Адамсон, Дэвид Блэкуэлл, Чад Уолкер, Фрэнк Магнер, Харлоу Маркс, Тиффани Сотер, Тришиа Куай, Донре Сэмпсон, Гари А. Роджерс, Дуглас Капуто

    Сюжет фильма: Чайна О`Брайен, женщина-полицейский возвращается в городок, где она выросла к своему отцу. Мирный городок, который она знала, теперь отбивается от преступных банд. Когда ее отца-шерифа убивают, Чайна решает занять его место и очистить город. В результате вспыхнула серия противостояний, которая решит, кто будет управлять городом.

    Во второй части отважная дамочка, получив должность шерифа маленького городка, бьется не на жизнь, а на смерть со своим лютым врагом Чарлзом Баскиным, сбежавшим из тюрьмы и вынашивающим планы затерроризировать местное население. Но на его пути встаёт Чайна с друзьями Мэттом и Дакотой.

    Снималось в: США
    Киностудия: Golden Harvest Company, Fred Weintraub Productions
    Время просмотра:
    Перевод текста: Любительский одноголосый, авторский (Петербуржец)
    Субтитры: Французские


    Файл
    Кодек для видео: MPEG-2
    Качество фильма: DVD-9
    Информация о видео: PAL 4:3 (720x576) VBR
    Информация о звуке: Русский, английский (Dolby AC3, 2 ch)




    Меню


    DVDInfo
    Title: Локальный диск
    Size: 7.54 Gb ( 7 906 622 KBytes ) - DVD-9
    Enabled regions: 1, 2, 3, 4, 5, 6, 7, 8

    VTS_01 :
    Play Length: 01:26:53
    Video: PAL 4:3 (720x576) VBR
    Audio:
    Russian (Dolby AC3, 2 ch)
    Russian (Dolby AC3, 2 ch)
    English (Dolby AC3, 2 ch)
    Subtitles:
    Francais

    VTS_02 :
    Play Length: 01:22:29
    Video: PAL 4:3 (720x576) VBR
    Audio:
    Russian (Dolby AC3, 2 ch)
    English (Dolby AC3, 2 ch)
    Subtitles:
    Francais

    VTS_03 :
    Play Length: 00:00:11
    Video: PAL 4:3 (720x576) VBR

    VTS_04 :
    Play Length: 00:00:12
    Video: PAL 4:3 (720x576) VBR
    Audio:
    Not specified (Dolby AC3, 2 ch)

    Menu Video:
    NTSC 4:3 (720x480) VBR
    Auto PanScan, Auto Letterboxed
    Menu Francais Language Unit :
    Root Menu




    MediaInfo
    Общее
    Полное имя : D:1АААCHINA_O_BRIEN_1990VIDEO_TSVTS_02_1.VOB
    Формат : MPEG-PS
    Размер файла : 1024 Мбайт
    Продолжительность : 22 м.
    Режим общего битрейта : Переменный
    Общий поток : 6273 Кбит/сек

    Видео
    Идентификатор : 224 (0xE0)
    Формат : MPEG Video
    Версия формата : Version 2
    Профиль формата : Main@Main
    Параметр BVOP формата : Да
    Параметр матрицы формата : Выборочная
    Параметр GOP формата : Variable
    Продолжительность : 22 м.
    Вид битрейта : Переменный
    Битрейт : 5764 Кбит/сек
    Максимальный битрейт : 8000 Кбит/сек
    Ширина : 720 пикселей
    Высота : 576 пикселей
    Соотношение сторон : 4:3
    Частота кадров : 25,000 кадров/сек
    Стандарт вещания : PAL
    Цветовое пространство : YUV
    Субдискретизация насыщенности : 4:2:0
    Битовая глубина : 8 бит
    Тип развёртки : Чересстрочная
    Порядок развёртки : Верхнее поле первое
    Метод сжатия : С потерями
    Бит/(Пиксели*Кадры) : 0.556
    TimeCode_FirstFrame : 09:59:17:15
    TimeCode_Source : Group of pictures t_head
    Размер потока : 941 Мбайт (92%)

    Аудио #1
    Идентификатор : 189 (0xBD)-128 (0x80)
    Формат : AC-3
    Формат/Информация : Audio Coding 3
    Расширение режима : CM (complete main)
    Параметр Endianness формата : Big
    Режим смешивания : DVD-Video
    Продолжительность : 22 м.
    Вид битрейта : Постоянный
    Битрейт : 192 Кбит/сек
    Каналы : 2 канала
    Расположение каналов : Front: L R
    Частота : 48,0 КГц
    Битовая глубина : 16 бит
    Метод сжатия : С потерями
    Размер потока : 31,3 Мбайт (3%)

    Аудио #2
    Идентификатор : 189 (0xBD)-129 (0x81)
    Формат : AC-3
    Формат/Информация : Audio Coding 3
    Расширение режима : CM (complete main)
    Параметр Endianness формата : Big
    Режим смешивания : DVD-Video
    Продолжительность : 22 м.
    Вид битрейта : Постоянный
    Битрейт : 192 Кбит/сек
    Каналы : 2 канала
    Расположение каналов : Front: L R
    Частота : 48,0 КГц
    Битовая глубина : 16 бит
    Метод сжатия : С потерями
    Размер потока : 31,3 Мбайт (3%)

    Меню




    Скриншоты для ознакомления

    Залил: YArl
    Размер скачиваемого торрента: 7.54 GB (8099286566 Bytes)

    Чайна ОБрайен 1, 2 / China OBrien 1, 2 (1989-1990) DVD9 торрент скачать бесплатно
    загрузка...
    Рейтинг →
     (голосов: 1, оценка 4/5, голосовать можно 1 раз )

    Другие торренты по теме:



      Комментарии (0):

      Информация

      Информация

        Посетители, находящиеся в группе Гости, не могут оставлять комментарии в данной новости.

        ↓ Меню



        ↓ Опрос

        А Вы добавили сайт в закладки?
        Да
        Не


        Top 10 за месяц (Фильмы)