.
Авторизация | Регистрация
Хочешь лучшие торренты? Добавь свой email!
Добавить
» » Машина / The Machine / La machine (1994) DVDRip | A скачать через торрент бесплатно




    Машина / The Machine / La machine (1994) DVDRip | A скачать через торрент бесплатно

    Опубликовал: Админ | Дата: 27-02-2015, 11:10 | Просмотров: 346

    Детально о кино
    Русское название: Машина
    Русское название в мировом прокате: The Machine / La machine
    Создали в: 1994
    Категория жанра: фантастика, триллер
    Главный режиссер: Франсуа Дюпейрон
    Актеры: Жерар Депардье, Натали Бэй, Дидье Бурдон, Наталия Вёрнер, Эрван Байно, Клод Берри, Марк Андреони, Ален Азеро, Вильфред Бенаиш, Кристиан Бюжо

    Сюжет фильма:
    Гениальный психиатр Марк Лекро создаёт фантастическую машину, способную переносить разум одного человека в тело другого и решает при помощи своей машины внедриться в мозг одного из пациентов психиатрической клиники. Он выбирает убийцу, страдающего комплексом агрессии к собственной матери и потому ненавидящем всех женщин.

    Эксперимент по изучению психологии маньяка изнутри оборачивается кровью невинных жертв. Марк меняется телами с маньяком и тем самым невольно выпускает на свободу жестокого убийцу, который, пользуясь его внешностью, готовит новые злодеяния.



    Снималось в: Франция, Германия
    Киностудия: France 2 Cin?ma, Hachette Premi?re, M6 Films, Prima, Studio Babelsberg
    Время просмотра: 01:31:54
    Перевод текста: Авторский | Гаврилов Андрей

    Файл
    Кодек для видео: XviD 73
    Качество фильма: DVDRip | Source: DVD5 (Custom)
    Информация о видео: 640x352 (16:9), 930 Kbps, 25.000 fps
    Информация о звуке: AC-3, 192 Kbps, 2 ch, 48.0 kHz, CBR
    Субтитры: нет

    SAMPLE

    Релиз подготовил: All Films by AMAPAHT

    MediaInfo
    Общее
    Полное имя : Mashina.1994.XviD.DVDRip.AMAPAHT.avi
    Формат : AVI
    Формат/Информация : Audio Video Interleave
    Размер файла : 744 Мбайт
    Продолжительность : 1 ч. 31 м.
    Общий поток : 1132 Кбит/сек
    Название фильма : Mashina.1994.XviD.DVDRip.AMAPAHT
    Режиссёр : AMAPAHT
    Жанр : Drama/Sci-Fi/Thriler
    Программа кодирования : VirtualDubMod 1.5.10.3 | www.virtualdub-fr.org || (build 2550/release)
    Формат оригинала/Имя : Movie
    Примечание : rus AVO Gavrilov

    Видео
    Идентификатор : 0
    Формат : MPEG-4 Visual
    Профиль формата : Advanced Simple@L5
    Параметр BVOP формата : 2
    Параметр QPel формата : Нет
    Параметр GMC формата : Без точки перехода
    Параметр матрицы формата : Выборочная
    Идентификатор кодека : XVID
    Идентификатор кодека/Подсказка : XviD
    Продолжительность : 1 ч. 31 м.
    Битрейт : 930 Кбит/сек
    Ширина : 640 пикселей
    Высота : 352 пикселя
    Соотношение сторон : 16:9
    Частота кадров : 25,000 кадров/сек
    Цветовое пространство : YUV
    Субдискретизация насыщенности : 4:2:0
    Битовая глубина : 8 бит
    Тип развёртки : Прогрессивная
    Метод сжатия : С потерями
    Бит/(Пиксели*Кадры) : 0.165
    Размер потока : 611 Мбайт (82%)
    Библиотека кодирования : XviD 73

    Аудио
    Идентификатор : 1
    Формат : AC-3
    Формат/Информация : Audio Coding 3
    Расширение режима : CM (complete main)
    Параметр Endianness формата : Big
    Идентификатор кодека : 2000
    Продолжительность : 1 ч. 31 м.
    Вид битрейта : Постоянный
    Битрейт : 192 Кбит/сек
    Каналы : 2 канала
    Расположение каналов : Front: L R
    Частота : 48,0 КГц
    Битовая глубина : 16 бит
    Метод сжатия : С потерями
    Размер потока : 126 Мбайт (17%)
    Выравнивание : Разделение по промежуткам
    Продолжительность промежутка : 40 мс. (1,00 видеокадр)
    Время предзагрузки промежутка : 500 мс.
    Скриншоты для ознакомления

    Размер скачиваемого торрента: 743.82 MB (779952128 Bytes)

    Машина / The Machine / La machine (1994) DVDRip | A скачать через торрент бесплатно
    загрузка...
    Рейтинг →
     (голосов: 1, оценка 3/5, голосовать можно 1 раз )

    Другие торренты по теме:

  • Успенский Михаил - Райская машина (2011) MP3
  • Машина Времени и Воскресение 50 лет на двоих (2000-2004) DVDRip-AVC
  • OST - Машина времени / The Time Machine (1960) MP3
  • Машина Времени. Ловушка (2010) PC | Repack от R.G. UPG
  • Машина Времени и Воскресение - 50 лет на двоих в Кремле (2000) DVDRip
  • Машина смерти / Death Machine (1994) DVDRip от NovaLan
  • Тачки: Байки Мэтра - Мэтр - машина времени / Time Travel Mater (2012) BDRip 1080p
  • Летающая машина / Волшебная страна / The Flying Machine (2011) HDRip | Лицензия


    • Комментарии (0):

      Информация

      Информация

        Посетители, находящиеся в группе Гости, не могут оставлять комментарии в данной новости.

        ↓ Меню



        ↓ Опрос

        А Вы добавили сайт в закладки?
        Да
        Не


        Top 10 за месяц (Фильмы)